<svg xmlns="http://www.w3.org/2000/svg">
<defs>
<font
       id="FontID0"
       horiz-adv-x="667"
       font-variant="normal"
       font-style="normal"
       font-weight="400"
       horiz-origin-x="0"
       horiz-origin-y="0"
       vert-origin-x="45"
       vert-origin-y="90"
       vert-adv-y="90"
       style="font-style:normal;font-variant:normal;font-weight:400"><font-face
         font-family="Arial"
         id="font-face7" /><missing-glyph
         id="missing-glyph9"><path
           d="M0 0z"
           id="path11" /></missing-glyph><glyph
         unicode="U"
         horiz-adv-x="722"
         id="glyph13"><path
           d="M545.992 716.007l95.006 0 0 -413.509c0,-72.0053 -8.16444,-129.156 -24.3315,-171.489 -16.3289,-42.1709 -45.6597,-76.681 -87.9925,-103.17 -42.5126,-26.5075 -98.0092,-39.8331 -167.011,-39.8331 -66.8261,0 -121.657,11.4914 -164.17,34.6539 -42.6565,23.1805 -72.9944,56.5037 -91.1576,100.347 -18.1632,43.8254 -27.3347,103.656 -27.3347,179.492l0 413.509 95.006 0 0 -413.347c0,-62.1684 5.8266,-108.152 17.318,-137.501 11.5093,-29.4927 31.1831,-52.3315 59.345,-68.1569 28.0001,-16.0052 62.3303,-24.0078 102.829,-24.0078 69.3258,0 118.834,15.8433 148.327,47.3322 29.5107,31.6687 44.1671,92.3445 44.1671,182.333l0 413.347z"
           id="path15" /></glyph><glyph
         unicode="D"
         horiz-adv-x="722"
         id="glyph17"><path
           d="M77.0014 0l0 715.999 246.665 0c55.6653,0 98.1678,-3.33221 127.5,-10.1663 41.0007,-9.4984 76.0013,-26.6648 104.998,-51.3331 37.8346,-32.0006 66.0012,-72.6656 84.6693,-122.331 18.8307,-49.6687 28.1666,-106.5 28.1666,-170.335 0,-54.3331 -6.3358,-102.5 -19.0003,-144.501 -12.6681,-42.0007 -29.0005,-76.8317 -48.8348,-104.334 -20.0004,-27.4987 -41.665,-49.1634 -65.3333,-64.8315 -23.4986,-15.8342 -52.0009,-27.8344 -85.3337,-36.0006 -33.4988,-8.16622 -71.8317,-12.1663 -115.165,-12.1663l-258.333 0zm94.9981 84.0015l152.667 0c47.1669,0 84.1676,4.33223 110.998,13.1663 26.8344,8.83054 48.1669,21.1665 64.1672,37.1667 22.3361,22.4986 39.8346,52.8313 52.3331,90.832 12.502,38.0007 18.8343,84.0015 18.8343,138.169 0,74.9978 -12.3324,132.667 -36.8346,173 -24.4987,40.3329 -54.3331,67.3333 -89.4998,80.9979 -25.3326,9.8341 -66.1637,14.6681 -122.497,14.6681l-150.169 0 0 -547.999z"
           id="path19" /></glyph><glyph
         unicode="R"
         horiz-adv-x="722"
         id="glyph21"><path
           d="M79.0008 0l0 716.007 317.334 0c63.8229,0 112.324,-6.50997 145.503,-19.3321 33.1613,-12.8401 59.6687,-35.5171 79.4864,-68.013 19.8356,-32.4959 29.6725,-68.4986 29.6725,-107.828 0,-50.8389 -16.4907,-93.6753 -49.3283,-128.509 -32.8376,-34.8158 -83.4967,-56.8274 -152.175,-66.3226 25.1767,-11.9949 44.1671,-24.0078 57.1691,-35.661 27.6764,-25.3385 53.8421,-57.1691 78.3355,-95.3477l123.833 -194.993 -118.33 0 -94.6643 148.992c-27.4965,43.178 -50.3354,76.0156 -68.1749,98.8365 -18.0013,22.8389 -33.9885,38.6642 -48.1594,47.8357 -14.009,9.00966 -28.5036,15.3398 -43.178,19.0084 -10.6641,2.158 -28.1619,3.32692 -52.6552,3.32692l-109.662 0 0 -318 -95.006 0zm95.006 400.004l203.32 0c43.3399,0 77.0047,4.49584 101.336,13.4875 24.3315,8.84781 42.8363,23.1805 55.3348,43.0162 12.6603,19.6558 19.0084,40.984 19.0084,64.1646 0,33.8267 -12.1747,61.8267 -36.668,83.6585 -24.5113,21.8318 -63.1755,32.6757 -116.011,32.6757l-226.32 0 0 -237.003z"
           id="path23" /></glyph><glyph
         unicode="A"
         horiz-adv-x="667"
         id="glyph25"><path
           d="M-1.49826 0l274.666 715.999 104.164 0 291.5 -715.999 -107.832 0 -82.8319 217 -301.5 0 -77.6657 -217 -100.5 0zm205.997 294.002l244.001 0 -74.6656 198.498c-22.4986,60.3332 -39.4989,110.168 -51.3331,149.501 -9.8341,-46.6687 -23.0004,-92.4999 -39.4989,-137.833l-78.5032 -210.166z"
           id="path27" /></glyph><glyph
         unicode="-"
         horiz-adv-x="332"
         id="glyph29"><path
           d="M31.0033 215.009l0 87.9925 271.998 0 0 -87.9925 -271.998 0z"
           id="path31" /></glyph><glyph
         unicode="O"
         horiz-adv-x="777"
         id="glyph33"><path
           d="M47.9976 348.499c0,118.672 32.0104,211.664 95.8333,278.832 63.8409,67.1678 146.169,100.671 247.163,100.671 66.1787,0 125.668,-15.8433 178.844,-47.3322 52.9969,-31.5068 93.4954,-75.4941 121.334,-131.998 27.8202,-56.3418 41.8293,-120.345 41.8293,-191.846 0,-72.4909 -14.6744,-137.501 -44.0053,-194.652 -29.3308,-57.3489 -70.8364,-100.671 -124.499,-130.002 -53.8242,-29.5107 -111.838,-44.1671 -173.989,-44.1671 -67.5095,0 -127.682,16.3289 -180.841,48.8248 -52.9969,32.4959 -93.3336,76.8428 -120.668,133.167 -27.3347,56.162 -41.002,115.669 -41.002,178.503zm98.0092 -1.67245c0,-86.1582 23.1626,-153.991 69.4877,-203.5 46.3431,-49.4902 104.501,-74.3252 174.51,-74.3252 71.322,0 129.822,24.9969 176.003,74.9906 45.9834,50.0117 68.9841,121.01 68.9841,213.013 0,58.1581 -9.81891,108.997 -29.4927,152.319 -19.6738,43.3399 -48.5011,77.0047 -86.3381,100.851 -37.9988,23.8279 -80.4935,35.8228 -127.664,35.8228 -67.006,0 -124.661,-23.0007 -173,-69.0021 -48.3392,-46.0014 -72.4909,-122.664 -72.4909,-230.169z"
           id="path35" /></glyph><glyph
         unicode="Ô"
         horiz-adv-x="777"
         id="glyph37"><path
           d="M47.9976 348.499c0,118.672 32.0104,211.664 95.8333,278.832 63.8409,67.1678 146.169,100.671 247.163,100.671 66.1787,0 125.668,-15.8433 178.844,-47.3322 52.9969,-31.5068 93.4954,-75.4941 121.334,-131.998 27.8202,-56.3418 41.8293,-120.345 41.8293,-191.846 0,-72.4909 -14.6744,-137.501 -44.0053,-194.652 -29.3308,-57.3489 -70.8364,-100.671 -124.499,-130.002 -53.8242,-29.5107 -111.838,-44.1671 -173.989,-44.1671 -67.5095,0 -127.682,16.3289 -180.841,48.8248 -52.9969,32.4959 -93.3336,76.8428 -120.668,133.167 -27.3347,56.162 -41.002,115.669 -41.002,178.503zm98.0092 -1.67245c0,-86.1582 23.1626,-153.991 69.4877,-203.5 46.3431,-49.4902 104.501,-74.3252 174.51,-74.3252 71.322,0 129.822,24.9969 176.003,74.9906 45.9834,50.0117 68.9841,121.01 68.9841,213.013 0,58.1581 -9.81891,108.997 -29.4927,152.319 -19.6738,43.3399 -48.5011,77.0047 -86.3381,100.851 -37.9988,23.8279 -80.4935,35.8228 -127.664,35.8228 -67.006,0 -124.661,-23.0007 -173,-69.0021 -48.3392,-46.0014 -72.4909,-122.664 -72.4909,-230.169zm243.998 496.179l-54.5075 -83.0111 -100.005 0 104.501 136.997 93.0099 0 111.497 -136.997 -100.005 0 -54.4895 83.0111z"
           id="path39" /></glyph><glyph
         unicode="L"
         horiz-adv-x="556"
         id="glyph41"><path
           d="M72.9944 0l0 716.007 95.006 0 0 -632.007 352.006 0 0 -84.0002 -447.012 0z"
           id="path43" /></glyph><glyph
         unicode="Ã"
         horiz-adv-x="667"
         id="glyph45"><path
           d="M-1.49262 0l274.66 716.007 104.16 0 291.51 -716.007 -107.828 0 -82.8493 217.005 -301.491 0 -77.6701 -217.005 -100.491 0zm205.999 293.992l243.998 0 -74.6669 198.5c-22.4972,60.3341 -39.5094,110.166 -51.3425,149.514 -9.83689,-46.6668 -23.0007,-92.5063 -39.4914,-137.842l-78.4973 -210.171zm-41.5056 465.013c-0.341684,33.503 8.99167,60.1543 27.8382,80.1698 18.4869,19.8176 42.3328,29.8164 71.322,29.8164 20.1773,0 47.6739,-8.48814 82.3457,-25.6622 19.1523,-9.49521 34.4921,-14.3327 45.8216,-14.3327 10.5023,0 18.5049,2.84137 24.0078,8.50612 5.5029,5.5029 9.33336,16.8324 11.6712,33.503l62.9957 0c-1.00707,-37.0097 -10.3404,-64.6681 -28.0001,-83.173 -17.6776,-18.5049 -39.995,-27.8382 -67.3297,-27.8382 -20.3392,0 -47.3322,9.17151 -80.6733,27.3347 -21.8318,11.833 -37.837,17.6776 -47.9976,17.6776 -11.0058,0 -19.9975,-3.84844 -26.6693,-11.6712 -7.17536,-7.66091 -10.6641,-19.1702 -10.3404,-34.3302l-64.9918 0z"
           id="path47" /></glyph><glyph
         unicode="Z"
         horiz-adv-x="610"
         id="glyph49"><path
           d="M19.9975 0l0 87.507 366.662 458.989c26.3456,32.3341 51.0008,60.8377 74.505,85.5108l-399.158 0 0 84.0002 511.986 0 0 -84.0002 -402.162 -496.682 -42.9982 -51.3245 457.173 0 0 -84.0002 -566.008 0z"
           id="path51" /></glyph><glyph
         unicode="I"
         horiz-adv-x="277"
         id="glyph53"><path
           d="M92.9919 0l0 716.007 95.006 0 0 -716.007 -95.006 0z"
           id="path55" /></glyph><glyph
         unicode="C"
         horiz-adv-x="722"
         id="glyph57"><path
           d="M586.994 251.173l95.006 -24.0078c-19.8356,-77.8319 -55.4966,-136.997 -107.001,-177.837 -51.5043,-40.8222 -114.5,-61.3232 -189.005,-61.3232 -76.9867,0 -139.659,15.6635 -187.998,47.1703 -48.3213,31.327 -84.9893,76.8249 -110.166,136.332 -25.1587,59.6508 -37.837,123.492 -37.837,191.828 0,74.505 14.1709,139.497 42.6745,194.993 28.5036,55.4966 69.0021,97.6676 121.495,126.513 52.5114,28.8273 110.328,43.16 173.341,43.16 71.6636,0 131.836,-18.1632 180.499,-54.6694 48.8248,-36.5062 82.8313,-87.6688 102.002,-153.668l-93.0099 -21.9936c-16.4907,51.9899 -40.6603,89.9887 -72.1672,113.655 -31.4888,23.8459 -71.1601,35.679 -118.996,35.679 -54.8312,0 -100.833,-13.1638 -137.663,-39.5094 -36.8299,-26.3276 -62.8338,-61.8267 -77.6701,-106.156 -14.9981,-44.5088 -22.4972,-90.3483 -22.4972,-137.501 0,-60.8377 8.82982,-114.014 26.4895,-159.332 17.6776,-45.4979 45.1742,-79.3425 82.5076,-101.84 37.3334,-22.4972 77.6701,-33.6648 121.172,-33.6648 52.9969,0 97.6676,15.3398 134.336,45.8396 36.668,30.6616 61.4851,75.9976 74.487,136.332z"
           id="path59" /></glyph><glyph
         unicode="T"
         horiz-adv-x="610"
         id="glyph61"><path
           d="M258.996 0l0 632.007 -235.995 0 0 84.0002 566.997 0 0 -84.0002 -235.995 0 0 -632.007 -95.006 0z"
           id="path63" /></glyph><glyph
         unicode="N"
         horiz-adv-x="722"
         id="glyph65"><path
           d="M75.9976 0l0 716.007 97.3439 0 375.654 -562.016 0 562.016 90.9957 0 0 -716.007 -97.3259 0 -375.672 561.998 0 -561.998 -90.9957 0z"
           id="path67" /></glyph><glyph
         unicode="Ó"
         horiz-adv-x="777"
         id="glyph69"><path
           d="M47.9976 348.499c0,118.672 32.0104,211.664 95.8333,278.832 63.8409,67.1678 146.169,100.671 247.163,100.671 66.1787,0 125.668,-15.8433 178.844,-47.3322 52.9969,-31.5068 93.4954,-75.4941 121.334,-131.998 27.8202,-56.3418 41.8293,-120.345 41.8293,-191.846 0,-72.4909 -14.6744,-137.501 -44.0053,-194.652 -29.3308,-57.3489 -70.8364,-100.671 -124.499,-130.002 -53.8242,-29.5107 -111.838,-44.1671 -173.989,-44.1671 -67.5095,0 -127.682,16.3289 -180.841,48.8248 -52.9969,32.4959 -93.3336,76.8428 -120.668,133.167 -27.3347,56.162 -41.002,115.669 -41.002,178.503zm98.0092 -1.67245c0,-86.1582 23.1626,-153.991 69.4877,-203.5 46.3431,-49.4902 104.501,-74.3252 174.51,-74.3252 71.322,0 129.822,24.9969 176.003,74.9906 45.9834,50.0117 68.9841,121.01 68.9841,213.013 0,58.1581 -9.81891,108.997 -29.4927,152.319 -19.6738,43.3399 -48.5011,77.0047 -86.3381,100.851 -37.9988,23.8279 -80.4935,35.8228 -127.664,35.8228 -67.006,0 -124.661,-23.0007 -173,-69.0021 -48.3392,-46.0014 -72.4909,-122.664 -72.4909,-230.169zm171.993 413.167l64.0027 136.997 115.993 0 -107.001 -136.997 -72.9944 0z"
           id="path71" /></glyph><glyph
         unicode="V"
         horiz-adv-x="667"
         id="glyph73"><path
           d="M281.008 0l-276.674 716.007 102.667 0 186.002 -520.348c14.8363,-41.6674 27.4965,-80.6553 37.4953,-117.162 11.0058,39.1677 23.8279,78.1736 38.5023,117.162l192.997 520.348 96.6605 0 -279.156 -716.007 -98.4948 0z"
           id="path75" /></glyph><glyph
         unicode="E"
         horiz-adv-x="667"
         id="glyph77"><path
           d="M79.0014 0l0 715.999 516.999 0 0 -83.998 -422 0 0 -220 395 0 0 -84.0015 -395 0 0 -243.997 439.001 0 0 -84.0015 -533.999 0z"
           id="path79" /></glyph><glyph
         unicode="S"
         horiz-adv-x="667"
         id="glyph81"><path
           d="M46.0014 230.007l88.9996 7.98461c4.17214,-35.9847 13.991,-65.4954 29.4927,-88.6579 15.5016,-23.0007 39.5094,-41.6674 72.0053,-56.0001 32.4959,-14.1709 69.164,-21.3283 109.842,-21.3283 36.1645,0 67.995,5.32307 95.6534,16.167 27.6764,10.826 48.1774,25.6622 61.6649,44.4908 13.5055,18.8286 20.3392,39.3296 20.3392,61.3412 0,22.3353 -6.49199,41.8293 -19.4939,58.6617 -13.002,16.6706 -34.51,30.6616 -64.5063,42.1709 -19.1702,7.33721 -61.6649,18.9904 -127.502,34.8337 -65.837,15.8253 -111.838,30.6616 -138.166,44.6706 -34.1684,17.9833 -59.4889,40.3187 -76.1595,66.8261 -16.8324,26.5075 -25.1767,56.3238 -25.1767,89.1614 0,36.3443 10.3404,70.171 30.8414,101.498 20.501,31.5068 50.3354,55.3348 89.8268,71.6816 39.3296,16.3289 83.173,24.4933 131.332,24.4933 52.9969,0 99.8435,-8.50612 140.342,-25.6622 40.4985,-17.0122 71.6636,-42.1709 93.4954,-75.5121 21.8318,-33.1613 33.503,-70.8364 35.1754,-112.828l-91.0137 -6.99552c-4.81954,45.1562 -21.3283,79.3245 -49.4902,102.325 -28.1619,23.1626 -69.8293,34.6719 -124.84,34.6719 -57.3309,0 -99.1602,-10.5023 -125.326,-31.5068 -26.1658,-20.9866 -39.3296,-46.3251 -39.3296,-75.9976 0,-25.6622 9.33336,-46.8286 27.8202,-63.4992 18.343,-16.4907 65.837,-33.6648 142.842,-51.0008 77.0047,-17.4978 129.822,-32.6578 158.505,-45.6597 41.4876,-19.1702 72.329,-43.3399 92.1647,-72.8326 19.8356,-29.3308 29.6545,-63.1755 29.6545,-101.498 0,-38.1786 -10.826,-73.8396 -32.6578,-107.504 -21.8318,-33.6648 -52.9969,-59.8306 -93.8371,-78.4973 -40.8402,-18.6667 -86.6618,-28.0001 -137.824,-28.0001 -64.6681,0 -118.834,9.49521 -162.516,28.3238 -43.8254,18.8465 -77.9938,47.1703 -102.829,85.1691 -24.9969,37.837 -37.9988,80.6733 -39.3296,128.509z"
           id="path83" /></glyph><glyph
         unicode=" "
         horiz-adv-x="277"
         id="glyph85" /><glyph
         unicode="Ç"
         horiz-adv-x="722"
         id="glyph87"><path
           d="M586.994 251.173l95.006 -24.0078c-19.8356,-77.8319 -55.4966,-136.997 -107.001,-177.837 -51.5043,-40.8222 -114.5,-61.3232 -189.005,-61.3232 -76.9867,0 -139.659,15.6635 -187.998,47.1703 -48.3213,31.327 -84.9893,76.8249 -110.166,136.332 -25.1587,59.6508 -37.837,123.492 -37.837,191.828 0,74.505 14.1709,139.497 42.6745,194.993 28.5036,55.4966 69.0021,97.6676 121.495,126.513 52.5114,28.8273 110.328,43.16 173.341,43.16 71.6636,0 131.836,-18.1632 180.499,-54.6694 48.8248,-36.5062 82.8313,-87.6688 102.002,-153.668l-93.0099 -21.9936c-16.4907,51.9899 -40.6603,89.9887 -72.1672,113.655 -31.4888,23.8459 -71.1601,35.679 -118.996,35.679 -54.8312,0 -100.833,-13.1638 -137.663,-39.5094 -36.8299,-26.3276 -62.8338,-61.8267 -77.6701,-106.156 -14.9981,-44.5088 -22.4972,-90.3483 -22.4972,-137.501 0,-60.8377 8.82982,-114.014 26.4895,-159.332 17.6776,-45.4979 45.1742,-79.3425 82.5076,-101.84 37.3334,-22.4972 77.6701,-33.6648 121.172,-33.6648 52.9969,0 97.6676,15.3398 134.336,45.8396 36.668,30.6616 61.4851,75.9976 74.487,136.332zm-277.321 -337.17l25.3206 85.9964 65.0098 0 -16.167 -52.0078c27.8382,-3.32692 48.8248,-11.833 62.9957,-25.6622 14.1709,-13.6673 21.1664,-28.9892 21.1664,-45.8216 0,-24.3495 -11.833,-45.8396 -35.4991,-64.5063 -23.5042,-18.6667 -59.1652,-28.0001 -106.659,-28.0001 -26.8491,0 -50.5152,0 -70.8364,0l4.99937 62.0066c21.1664,-0.683367 36.4882,-1.00707 46.5049,-1.00707 30.8235,0 52.6552,4.17214 65.1537,12.6603 9.51319,6.50997 14.3327,14.3327 14.3327,23.8459 0,5.8266 -1.8343,10.9878 -5.66475,15.4837 -3.6686,4.51382 -10.5023,8.50612 -20.501,11.6712 -10.1606,3.16507 -26.8312,4.99937 -50.1556,5.34105z"
           id="path89" /></glyph><glyph
         unicode="P"
         horiz-adv-x="667"
         id="glyph91"><path
           d="M77.0014 0l0 715.999 270.333 0c47.4991,0 83.8319,-2.3322 108.998,-6.83051 35.1667,-5.83403 64.6655,-17.0003 88.4998,-33.3363 23.8343,-16.4985 43.0008,-39.4989 57.4992,-68.9977 14.502,-29.5023 21.6682,-62.0011 21.6682,-97.5 0,-60.6689 -19.3325,-112.168 -58.1671,-154.169 -38.665,-42.1668 -108.832,-63.1637 -210.166,-63.1637l-183.668 0 0 -292.002 -94.9981 0zm94.9981 376l185 0c61.3332,0 104.666,11.3324 130.501,34.1667 25.6683,22.8343 38.4989,54.8349 38.4989,96.3339 0,29.8344 -7.49837,55.4992 -22.6647,76.8317 -15.1663,21.3361 -35.1667,35.5024 -59.835,42.3364 -16.0003,4.16615 -45.499,6.33227 -88.3337,6.33227l-183.166 0 0 -256.001z"
           id="path93" /></glyph><glyph
         unicode="M"
         horiz-adv-x="833"
         id="glyph95"><path
           d="M75.0013 0l0 715.999 141.999 0 169.332 -506.832c15.6681,-47.1669 27.0005,-82.4997 34.1667,-105.998 8.16976,26.0005 21.0004,64.3333 38.3364,114.832l172.332 497.998 126.833 0 0 -715.999 -90.9981 0 0 599 -209 -599 -85.3337 0 -206.668 610 0 -610 -90.9981 0z"
           id="path97" /></glyph><glyph
         unicode="G"
         horiz-adv-x="777"
         id="glyph99"><path
           d="M412 281.001l0 83.998 302.998 0 0 -265.333c-46.4991,-37.0007 -94.4999,-65.0011 -143.999,-83.6658 -49.4991,-18.6682 -100.334,-28.0005 -152.331,-28.0005 -70.3334,0 -134.168,15.0003 -191.668,45.1669 -57.3332,30.0005 -100.832,73.6656 -129.999,130.501 -29.3362,57.001 -44.0008,120.666 -44.0008,190.834 0,69.6655 14.4985,134.667 43.6651,195.166 29.1666,60.3332 71.0013,105.168 125.667,134.335 54.6688,29.3327 117.666,43.9972 189,43.9972 51.6688,0 98.5,-8.3323 140.335,-25.1665 41.8347,-16.8307 74.6656,-40.1668 98.3339,-69.9977 23.8308,-30.0005 41.8311,-69.1673 54.167,-117.334l-85.4997 -23.3326c-10.8341,36.3328 -24.1665,64.9976 -40.0007,85.998 -16.0003,20.8343 -38.6685,37.5024 -68.3334,50.0009 -29.5023,12.4985 -62.3333,18.8343 -98.5,18.8343 -43.1668,0 -80.4997,-6.66796 -112.168,-19.8343 -31.4988,-13.1663 -56.8314,-30.4988 -76.3335,-52.167 -19.3325,-21.4986 -34.3328,-45.1669 -45.0008,-70.8316 -18.1664,-44.5026 -27.3326,-92.4999 -27.3326,-144.335 0,-64.0011 11.0002,-117.5 32.8345,-160.667 22.0004,-43.0008 54.001,-74.9978 95.8321,-95.8321 42.0007,-20.8343 86.4998,-31.3327 133.667,-31.3327 41.0007,0 81.0014,8.00014 120.002,23.8308 38.9972,16.0003 68.4994,32.8345 88.6659,51.0009l0 134.168 -210 0z"
           id="path101" /></glyph></font><style
       type="text/css"
       id="style103">
   
    @font-face { font-family:&quot;Arial&quot;;src:url(&quot;#FontID0&quot;) format(svg)}
    .fil3 {fill:#373435}
    .fil2 {fill:#544430}
    .fil1 {fill:#68944A}
    .fil0 {fill:#FEFEFE}
    .fnt1 {font-weight:normal;font-size:556.07;font-family:'Arial'}
    .fnt0 {font-weight:normal;font-size:2829.95;font-family:'Arial'}
   
  </style><font
       font-weight="400"
       font-style="normal"
       style="fill-rule:nonzero"
       font-variant="normal"
       horiz-adv-x="667"
       id="FontID0-35"><font-face
         id="font-face7-6"
         font-family="Arial" /><missing-glyph
         id="missing-glyph9-2"><path
           id="path11-9"
           d="M0 0z" /></missing-glyph><glyph
         id="glyph13-1"
         horiz-adv-x="722"
         unicode="U"><path
           id="path15-2"
           d="M545.992 716.007l95.006 0 0 -413.509c0,-72.0053 -8.16444,-129.156 -24.3315,-171.489 -16.3289,-42.1709 -45.6597,-76.681 -87.9925,-103.17 -42.5126,-26.5075 -98.0092,-39.8331 -167.011,-39.8331 -66.8261,0 -121.657,11.4914 -164.17,34.6539 -42.6565,23.1805 -72.9944,56.5037 -91.1576,100.347 -18.1632,43.8254 -27.3347,103.656 -27.3347,179.492l0 413.509 95.006 0 0 -413.347c0,-62.1684 5.8266,-108.152 17.318,-137.501 11.5093,-29.4927 31.1831,-52.3315 59.345,-68.1569 28.0001,-16.0052 62.3303,-24.0078 102.829,-24.0078 69.3258,0 118.834,15.8433 148.327,47.3322 29.5107,31.6687 44.1671,92.3445 44.1671,182.333l0 413.347z" /></glyph><glyph
         id="glyph17-7"
         horiz-adv-x="722"
         unicode="D"><path
           id="path19-0"
           d="M77.0014 0l0 715.999 246.665 0c55.6653,0 98.1678,-3.33221 127.5,-10.1663 41.0007,-9.4984 76.0013,-26.6648 104.998,-51.3331 37.8346,-32.0006 66.0012,-72.6656 84.6693,-122.331 18.8307,-49.6687 28.1666,-106.5 28.1666,-170.335 0,-54.3331 -6.3358,-102.5 -19.0003,-144.501 -12.6681,-42.0007 -29.0005,-76.8317 -48.8348,-104.334 -20.0004,-27.4987 -41.665,-49.1634 -65.3333,-64.8315 -23.4986,-15.8342 -52.0009,-27.8344 -85.3337,-36.0006 -33.4988,-8.16622 -71.8317,-12.1663 -115.165,-12.1663l-258.333 0zm94.9981 84.0015l152.667 0c47.1669,0 84.1676,4.33223 110.998,13.1663 26.8344,8.83054 48.1669,21.1665 64.1672,37.1667 22.3361,22.4986 39.8346,52.8313 52.3331,90.832 12.502,38.0007 18.8343,84.0015 18.8343,138.169 0,74.9978 -12.3324,132.667 -36.8346,173 -24.4987,40.3329 -54.3331,67.3333 -89.4998,80.9979 -25.3326,9.8341 -66.1637,14.6681 -122.497,14.6681l-150.169 0 0 -547.999z" /></glyph><glyph
         id="glyph21-9"
         horiz-adv-x="722"
         unicode="R"><path
           id="path23-3"
           d="M79.0008 0l0 716.007 317.334 0c63.8229,0 112.324,-6.50997 145.503,-19.3321 33.1613,-12.8401 59.6687,-35.5171 79.4864,-68.013 19.8356,-32.4959 29.6725,-68.4986 29.6725,-107.828 0,-50.8389 -16.4907,-93.6753 -49.3283,-128.509 -32.8376,-34.8158 -83.4967,-56.8274 -152.175,-66.3226 25.1767,-11.9949 44.1671,-24.0078 57.1691,-35.661 27.6764,-25.3385 53.8421,-57.1691 78.3355,-95.3477l123.833 -194.993 -118.33 0 -94.6643 148.992c-27.4965,43.178 -50.3354,76.0156 -68.1749,98.8365 -18.0013,22.8389 -33.9885,38.6642 -48.1594,47.8357 -14.009,9.00966 -28.5036,15.3398 -43.178,19.0084 -10.6641,2.158 -28.1619,3.32692 -52.6552,3.32692l-109.662 0 0 -318 -95.006 0zm95.006 400.004l203.32 0c43.3399,0 77.0047,4.49584 101.336,13.4875 24.3315,8.84781 42.8363,23.1805 55.3348,43.0162 12.6603,19.6558 19.0084,40.984 19.0084,64.1646 0,33.8267 -12.1747,61.8267 -36.668,83.6585 -24.5113,21.8318 -63.1755,32.6757 -116.011,32.6757l-226.32 0 0 -237.003z" /></glyph><glyph
         id="glyph25-6"
         horiz-adv-x="667"
         unicode="A"><path
           id="path27-0"
           d="M-1.49826 0l274.666 715.999 104.164 0 291.5 -715.999 -107.832 0 -82.8319 217 -301.5 0 -77.6657 -217 -100.5 0zm205.997 294.002l244.001 0 -74.6656 198.498c-22.4986,60.3332 -39.4989,110.168 -51.3331,149.501 -9.8341,-46.6687 -23.0004,-92.4999 -39.4989,-137.833l-78.5032 -210.166z" /></glyph><glyph
         id="glyph29-6"
         horiz-adv-x="332"
         unicode="-"><path
           id="path31-2"
           d="M31.0033 215.009l0 87.9925 271.998 0 0 -87.9925 -271.998 0z" /></glyph><glyph
         id="glyph33-6"
         horiz-adv-x="777"
         unicode="O"><path
           id="path35-1"
           d="M47.9976 348.499c0,118.672 32.0104,211.664 95.8333,278.832 63.8409,67.1678 146.169,100.671 247.163,100.671 66.1787,0 125.668,-15.8433 178.844,-47.3322 52.9969,-31.5068 93.4954,-75.4941 121.334,-131.998 27.8202,-56.3418 41.8293,-120.345 41.8293,-191.846 0,-72.4909 -14.6744,-137.501 -44.0053,-194.652 -29.3308,-57.3489 -70.8364,-100.671 -124.499,-130.002 -53.8242,-29.5107 -111.838,-44.1671 -173.989,-44.1671 -67.5095,0 -127.682,16.3289 -180.841,48.8248 -52.9969,32.4959 -93.3336,76.8428 -120.668,133.167 -27.3347,56.162 -41.002,115.669 -41.002,178.503zm98.0092 -1.67245c0,-86.1582 23.1626,-153.991 69.4877,-203.5 46.3431,-49.4902 104.501,-74.3252 174.51,-74.3252 71.322,0 129.822,24.9969 176.003,74.9906 45.9834,50.0117 68.9841,121.01 68.9841,213.013 0,58.1581 -9.81891,108.997 -29.4927,152.319 -19.6738,43.3399 -48.5011,77.0047 -86.3381,100.851 -37.9988,23.8279 -80.4935,35.8228 -127.664,35.8228 -67.006,0 -124.661,-23.0007 -173,-69.0021 -48.3392,-46.0014 -72.4909,-122.664 -72.4909,-230.169z" /></glyph><glyph
         id="glyph37-8"
         horiz-adv-x="777"
         unicode="Ô"><path
           id="path39-7"
           d="M47.9976 348.499c0,118.672 32.0104,211.664 95.8333,278.832 63.8409,67.1678 146.169,100.671 247.163,100.671 66.1787,0 125.668,-15.8433 178.844,-47.3322 52.9969,-31.5068 93.4954,-75.4941 121.334,-131.998 27.8202,-56.3418 41.8293,-120.345 41.8293,-191.846 0,-72.4909 -14.6744,-137.501 -44.0053,-194.652 -29.3308,-57.3489 -70.8364,-100.671 -124.499,-130.002 -53.8242,-29.5107 -111.838,-44.1671 -173.989,-44.1671 -67.5095,0 -127.682,16.3289 -180.841,48.8248 -52.9969,32.4959 -93.3336,76.8428 -120.668,133.167 -27.3347,56.162 -41.002,115.669 -41.002,178.503zm98.0092 -1.67245c0,-86.1582 23.1626,-153.991 69.4877,-203.5 46.3431,-49.4902 104.501,-74.3252 174.51,-74.3252 71.322,0 129.822,24.9969 176.003,74.9906 45.9834,50.0117 68.9841,121.01 68.9841,213.013 0,58.1581 -9.81891,108.997 -29.4927,152.319 -19.6738,43.3399 -48.5011,77.0047 -86.3381,100.851 -37.9988,23.8279 -80.4935,35.8228 -127.664,35.8228 -67.006,0 -124.661,-23.0007 -173,-69.0021 -48.3392,-46.0014 -72.4909,-122.664 -72.4909,-230.169zm243.998 496.179l-54.5075 -83.0111 -100.005 0 104.501 136.997 93.0099 0 111.497 -136.997 -100.005 0 -54.4895 83.0111z" /></glyph><glyph
         id="glyph41-9"
         horiz-adv-x="556"
         unicode="L"><path
           id="path43-2"
           d="M72.9944 0l0 716.007 95.006 0 0 -632.007 352.006 0 0 -84.0002 -447.012 0z" /></glyph><glyph
         id="glyph45-0"
         horiz-adv-x="667"
         unicode="Ã"><path
           id="path47-2"
           d="M-1.49262 0l274.66 716.007 104.16 0 291.51 -716.007 -107.828 0 -82.8493 217.005 -301.491 0 -77.6701 -217.005 -100.491 0zm205.999 293.992l243.998 0 -74.6669 198.5c-22.4972,60.3341 -39.5094,110.166 -51.3425,149.514 -9.83689,-46.6668 -23.0007,-92.5063 -39.4914,-137.842l-78.4973 -210.171zm-41.5056 465.013c-0.341684,33.503 8.99167,60.1543 27.8382,80.1698 18.4869,19.8176 42.3328,29.8164 71.322,29.8164 20.1773,0 47.6739,-8.48814 82.3457,-25.6622 19.1523,-9.49521 34.4921,-14.3327 45.8216,-14.3327 10.5023,0 18.5049,2.84137 24.0078,8.50612 5.5029,5.5029 9.33336,16.8324 11.6712,33.503l62.9957 0c-1.00707,-37.0097 -10.3404,-64.6681 -28.0001,-83.173 -17.6776,-18.5049 -39.995,-27.8382 -67.3297,-27.8382 -20.3392,0 -47.3322,9.17151 -80.6733,27.3347 -21.8318,11.833 -37.837,17.6776 -47.9976,17.6776 -11.0058,0 -19.9975,-3.84844 -26.6693,-11.6712 -7.17536,-7.66091 -10.6641,-19.1702 -10.3404,-34.3302l-64.9918 0z" /></glyph><glyph
         id="glyph49-3"
         horiz-adv-x="610"
         unicode="Z"><path
           id="path51-7"
           d="M19.9975 0l0 87.507 366.662 458.989c26.3456,32.3341 51.0008,60.8377 74.505,85.5108l-399.158 0 0 84.0002 511.986 0 0 -84.0002 -402.162 -496.682 -42.9982 -51.3245 457.173 0 0 -84.0002 -566.008 0z" /></glyph><glyph
         id="glyph53-5"
         horiz-adv-x="277"
         unicode="I"><path
           id="path55-9"
           d="M92.9919 0l0 716.007 95.006 0 0 -716.007 -95.006 0z" /></glyph><glyph
         id="glyph57-2"
         horiz-adv-x="722"
         unicode="C"><path
           id="path59-28"
           d="M586.994 251.173l95.006 -24.0078c-19.8356,-77.8319 -55.4966,-136.997 -107.001,-177.837 -51.5043,-40.8222 -114.5,-61.3232 -189.005,-61.3232 -76.9867,0 -139.659,15.6635 -187.998,47.1703 -48.3213,31.327 -84.9893,76.8249 -110.166,136.332 -25.1587,59.6508 -37.837,123.492 -37.837,191.828 0,74.505 14.1709,139.497 42.6745,194.993 28.5036,55.4966 69.0021,97.6676 121.495,126.513 52.5114,28.8273 110.328,43.16 173.341,43.16 71.6636,0 131.836,-18.1632 180.499,-54.6694 48.8248,-36.5062 82.8313,-87.6688 102.002,-153.668l-93.0099 -21.9936c-16.4907,51.9899 -40.6603,89.9887 -72.1672,113.655 -31.4888,23.8459 -71.1601,35.679 -118.996,35.679 -54.8312,0 -100.833,-13.1638 -137.663,-39.5094 -36.8299,-26.3276 -62.8338,-61.8267 -77.6701,-106.156 -14.9981,-44.5088 -22.4972,-90.3483 -22.4972,-137.501 0,-60.8377 8.82982,-114.014 26.4895,-159.332 17.6776,-45.4979 45.1742,-79.3425 82.5076,-101.84 37.3334,-22.4972 77.6701,-33.6648 121.172,-33.6648 52.9969,0 97.6676,15.3398 134.336,45.8396 36.668,30.6616 61.4851,75.9976 74.487,136.332z" /></glyph><glyph
         id="glyph61-9"
         horiz-adv-x="610"
         unicode="T"><path
           id="path63-7"
           d="M258.996 0l0 632.007 -235.995 0 0 84.0002 566.997 0 0 -84.0002 -235.995 0 0 -632.007 -95.006 0z" /></glyph><glyph
         id="glyph65-3"
         horiz-adv-x="722"
         unicode="N"><path
           id="path67-6"
           d="M75.9976 0l0 716.007 97.3439 0 375.654 -562.016 0 562.016 90.9957 0 0 -716.007 -97.3259 0 -375.672 561.998 0 -561.998 -90.9957 0z" /></glyph><glyph
         id="glyph69-1"
         horiz-adv-x="777"
         unicode="Ó"><path
           id="path71-2"
           d="M47.9976 348.499c0,118.672 32.0104,211.664 95.8333,278.832 63.8409,67.1678 146.169,100.671 247.163,100.671 66.1787,0 125.668,-15.8433 178.844,-47.3322 52.9969,-31.5068 93.4954,-75.4941 121.334,-131.998 27.8202,-56.3418 41.8293,-120.345 41.8293,-191.846 0,-72.4909 -14.6744,-137.501 -44.0053,-194.652 -29.3308,-57.3489 -70.8364,-100.671 -124.499,-130.002 -53.8242,-29.5107 -111.838,-44.1671 -173.989,-44.1671 -67.5095,0 -127.682,16.3289 -180.841,48.8248 -52.9969,32.4959 -93.3336,76.8428 -120.668,133.167 -27.3347,56.162 -41.002,115.669 -41.002,178.503zm98.0092 -1.67245c0,-86.1582 23.1626,-153.991 69.4877,-203.5 46.3431,-49.4902 104.501,-74.3252 174.51,-74.3252 71.322,0 129.822,24.9969 176.003,74.9906 45.9834,50.0117 68.9841,121.01 68.9841,213.013 0,58.1581 -9.81891,108.997 -29.4927,152.319 -19.6738,43.3399 -48.5011,77.0047 -86.3381,100.851 -37.9988,23.8279 -80.4935,35.8228 -127.664,35.8228 -67.006,0 -124.661,-23.0007 -173,-69.0021 -48.3392,-46.0014 -72.4909,-122.664 -72.4909,-230.169zm171.993 413.167l64.0027 136.997 115.993 0 -107.001 -136.997 -72.9944 0z" /></glyph><glyph
         id="glyph73-9"
         horiz-adv-x="667"
         unicode="V"><path
           id="path75-3"
           d="M281.008 0l-276.674 716.007 102.667 0 186.002 -520.348c14.8363,-41.6674 27.4965,-80.6553 37.4953,-117.162 11.0058,39.1677 23.8279,78.1736 38.5023,117.162l192.997 520.348 96.6605 0 -279.156 -716.007 -98.4948 0z" /></glyph><glyph
         id="glyph77-1"
         horiz-adv-x="667"
         unicode="E"><path
           id="path79-9"
           d="M79.0014 0l0 715.999 516.999 0 0 -83.998 -422 0 0 -220 395 0 0 -84.0015 -395 0 0 -243.997 439.001 0 0 -84.0015 -533.999 0z" /></glyph><glyph
         id="glyph81-4"
         horiz-adv-x="667"
         unicode="S"><path
           id="path83-7"
           d="M46.0014 230.007l88.9996 7.98461c4.17214,-35.9847 13.991,-65.4954 29.4927,-88.6579 15.5016,-23.0007 39.5094,-41.6674 72.0053,-56.0001 32.4959,-14.1709 69.164,-21.3283 109.842,-21.3283 36.1645,0 67.995,5.32307 95.6534,16.167 27.6764,10.826 48.1774,25.6622 61.6649,44.4908 13.5055,18.8286 20.3392,39.3296 20.3392,61.3412 0,22.3353 -6.49199,41.8293 -19.4939,58.6617 -13.002,16.6706 -34.51,30.6616 -64.5063,42.1709 -19.1702,7.33721 -61.6649,18.9904 -127.502,34.8337 -65.837,15.8253 -111.838,30.6616 -138.166,44.6706 -34.1684,17.9833 -59.4889,40.3187 -76.1595,66.8261 -16.8324,26.5075 -25.1767,56.3238 -25.1767,89.1614 0,36.3443 10.3404,70.171 30.8414,101.498 20.501,31.5068 50.3354,55.3348 89.8268,71.6816 39.3296,16.3289 83.173,24.4933 131.332,24.4933 52.9969,0 99.8435,-8.50612 140.342,-25.6622 40.4985,-17.0122 71.6636,-42.1709 93.4954,-75.5121 21.8318,-33.1613 33.503,-70.8364 35.1754,-112.828l-91.0137 -6.99552c-4.81954,45.1562 -21.3283,79.3245 -49.4902,102.325 -28.1619,23.1626 -69.8293,34.6719 -124.84,34.6719 -57.3309,0 -99.1602,-10.5023 -125.326,-31.5068 -26.1658,-20.9866 -39.3296,-46.3251 -39.3296,-75.9976 0,-25.6622 9.33336,-46.8286 27.8202,-63.4992 18.343,-16.4907 65.837,-33.6648 142.842,-51.0008 77.0047,-17.4978 129.822,-32.6578 158.505,-45.6597 41.4876,-19.1702 72.329,-43.3399 92.1647,-72.8326 19.8356,-29.3308 29.6545,-63.1755 29.6545,-101.498 0,-38.1786 -10.826,-73.8396 -32.6578,-107.504 -21.8318,-33.6648 -52.9969,-59.8306 -93.8371,-78.4973 -40.8402,-18.6667 -86.6618,-28.0001 -137.824,-28.0001 -64.6681,0 -118.834,9.49521 -162.516,28.3238 -43.8254,18.8465 -77.9938,47.1703 -102.829,85.1691 -24.9969,37.837 -37.9988,80.6733 -39.3296,128.509z" /></glyph><glyph
         id="glyph85-8"
         horiz-adv-x="277"
         unicode=" " /><glyph
         id="glyph87-4"
         horiz-adv-x="722"
         unicode="Ç"><path
           id="path89-5"
           d="M586.994 251.173l95.006 -24.0078c-19.8356,-77.8319 -55.4966,-136.997 -107.001,-177.837 -51.5043,-40.8222 -114.5,-61.3232 -189.005,-61.3232 -76.9867,0 -139.659,15.6635 -187.998,47.1703 -48.3213,31.327 -84.9893,76.8249 -110.166,136.332 -25.1587,59.6508 -37.837,123.492 -37.837,191.828 0,74.505 14.1709,139.497 42.6745,194.993 28.5036,55.4966 69.0021,97.6676 121.495,126.513 52.5114,28.8273 110.328,43.16 173.341,43.16 71.6636,0 131.836,-18.1632 180.499,-54.6694 48.8248,-36.5062 82.8313,-87.6688 102.002,-153.668l-93.0099 -21.9936c-16.4907,51.9899 -40.6603,89.9887 -72.1672,113.655 -31.4888,23.8459 -71.1601,35.679 -118.996,35.679 -54.8312,0 -100.833,-13.1638 -137.663,-39.5094 -36.8299,-26.3276 -62.8338,-61.8267 -77.6701,-106.156 -14.9981,-44.5088 -22.4972,-90.3483 -22.4972,-137.501 0,-60.8377 8.82982,-114.014 26.4895,-159.332 17.6776,-45.4979 45.1742,-79.3425 82.5076,-101.84 37.3334,-22.4972 77.6701,-33.6648 121.172,-33.6648 52.9969,0 97.6676,15.3398 134.336,45.8396 36.668,30.6616 61.4851,75.9976 74.487,136.332zm-277.321 -337.17l25.3206 85.9964 65.0098 0 -16.167 -52.0078c27.8382,-3.32692 48.8248,-11.833 62.9957,-25.6622 14.1709,-13.6673 21.1664,-28.9892 21.1664,-45.8216 0,-24.3495 -11.833,-45.8396 -35.4991,-64.5063 -23.5042,-18.6667 -59.1652,-28.0001 -106.659,-28.0001 -26.8491,0 -50.5152,0 -70.8364,0l4.99937 62.0066c21.1664,-0.683367 36.4882,-1.00707 46.5049,-1.00707 30.8235,0 52.6552,4.17214 65.1537,12.6603 9.51319,6.50997 14.3327,14.3327 14.3327,23.8459 0,5.8266 -1.8343,10.9878 -5.66475,15.4837 -3.6686,4.51382 -10.5023,8.50612 -20.501,11.6712 -10.1606,3.16507 -26.8312,4.99937 -50.1556,5.34105z" /></glyph><glyph
         id="glyph91-0"
         horiz-adv-x="667"
         unicode="P"><path
           id="path93-3"
           d="M77.0014 0l0 715.999 270.333 0c47.4991,0 83.8319,-2.3322 108.998,-6.83051 35.1667,-5.83403 64.6655,-17.0003 88.4998,-33.3363 23.8343,-16.4985 43.0008,-39.4989 57.4992,-68.9977 14.502,-29.5023 21.6682,-62.0011 21.6682,-97.5 0,-60.6689 -19.3325,-112.168 -58.1671,-154.169 -38.665,-42.1668 -108.832,-63.1637 -210.166,-63.1637l-183.668 0 0 -292.002 -94.9981 0zm94.9981 376l185 0c61.3332,0 104.666,11.3324 130.501,34.1667 25.6683,22.8343 38.4989,54.8349 38.4989,96.3339 0,29.8344 -7.49837,55.4992 -22.6647,76.8317 -15.1663,21.3361 -35.1667,35.5024 -59.835,42.3364 -16.0003,4.16615 -45.499,6.33227 -88.3337,6.33227l-183.166 0 0 -256.001z" /></glyph><glyph
         id="glyph95-6"
         horiz-adv-x="833"
         unicode="M"><path
           id="path97-1"
           d="M75.0013 0l0 715.999 141.999 0 169.332 -506.832c15.6681,-47.1669 27.0005,-82.4997 34.1667,-105.998 8.16976,26.0005 21.0004,64.3333 38.3364,114.832l172.332 497.998 126.833 0 0 -715.999 -90.9981 0 0 599 -209 -599 -85.3337 0 -206.668 610 0 -610 -90.9981 0z" /></glyph><glyph
         id="glyph99-0"
         horiz-adv-x="777"
         unicode="G"><path
           id="path101-6"
           d="M412 281.001l0 83.998 302.998 0 0 -265.333c-46.4991,-37.0007 -94.4999,-65.0011 -143.999,-83.6658 -49.4991,-18.6682 -100.334,-28.0005 -152.331,-28.0005 -70.3334,0 -134.168,15.0003 -191.668,45.1669 -57.3332,30.0005 -100.832,73.6656 -129.999,130.501 -29.3362,57.001 -44.0008,120.666 -44.0008,190.834 0,69.6655 14.4985,134.667 43.6651,195.166 29.1666,60.3332 71.0013,105.168 125.667,134.335 54.6688,29.3327 117.666,43.9972 189,43.9972 51.6688,0 98.5,-8.3323 140.335,-25.1665 41.8347,-16.8307 74.6656,-40.1668 98.3339,-69.9977 23.8308,-30.0005 41.8311,-69.1673 54.167,-117.334l-85.4997 -23.3326c-10.8341,36.3328 -24.1665,64.9976 -40.0007,85.998 -16.0003,20.8343 -38.6685,37.5024 -68.3334,50.0009 -29.5023,12.4985 -62.3333,18.8343 -98.5,18.8343 -43.1668,0 -80.4997,-6.66796 -112.168,-19.8343 -31.4988,-13.1663 -56.8314,-30.4988 -76.3335,-52.167 -19.3325,-21.4986 -34.3328,-45.1669 -45.0008,-70.8316 -18.1664,-44.5026 -27.3326,-92.4999 -27.3326,-144.335 0,-64.0011 11.0002,-117.5 32.8345,-160.667 22.0004,-43.0008 54.001,-74.9978 95.8321,-95.8321 42.0007,-20.8343 86.4998,-31.3327 133.667,-31.3327 41.0007,0 81.0014,8.00014 120.002,23.8308 38.9972,16.0003 68.4994,32.8345 88.6659,51.0009l0 134.168 -210 0z" /></glyph></font><style
       id="style103-3"
       type="text/css">
   
    @font-face { font-family:&quot;Arial&quot;;src:url(&quot;#FontID0&quot;) format(svg)}
    .fil3 {fill:#373435}
    .fil2 {fill:#544430}
    .fil1 {fill:#68944A}
    .fil0 {fill:#FEFEFE}
    .fnt1 {font-weight:normal;font-size:556.07;font-family:'Arial'}
    .fnt0 {font-weight:normal;font-size:2829.95;font-family:'Arial'}
   
  </style><font
       id="FontID0-3"
       horiz-adv-x="667"
       font-variant="normal"
       style="fill-rule:nonzero"
       font-style="normal"
       font-weight="400"><font-face
         font-family="Arial"
         id="font-face7-5" /><missing-glyph
         id="missing-glyph9-6"><path
           d="M0 0z"
           id="path11-2" /></missing-glyph><glyph
         unicode="U"
         horiz-adv-x="722"
         id="glyph13-9"><path
           d="M545.992 716.007l95.006 0 0 -413.509c0,-72.0053 -8.16444,-129.156 -24.3315,-171.489 -16.3289,-42.1709 -45.6597,-76.681 -87.9925,-103.17 -42.5126,-26.5075 -98.0092,-39.8331 -167.011,-39.8331 -66.8261,0 -121.657,11.4914 -164.17,34.6539 -42.6565,23.1805 -72.9944,56.5037 -91.1576,100.347 -18.1632,43.8254 -27.3347,103.656 -27.3347,179.492l0 413.509 95.006 0 0 -413.347c0,-62.1684 5.8266,-108.152 17.318,-137.501 11.5093,-29.4927 31.1831,-52.3315 59.345,-68.1569 28.0001,-16.0052 62.3303,-24.0078 102.829,-24.0078 69.3258,0 118.834,15.8433 148.327,47.3322 29.5107,31.6687 44.1671,92.3445 44.1671,182.333l0 413.347z"
           id="path15-1" /></glyph><glyph
         unicode="D"
         horiz-adv-x="722"
         id="glyph17-2"><path
           d="M77.0014 0l0 715.999 246.665 0c55.6653,0 98.1678,-3.33221 127.5,-10.1663 41.0007,-9.4984 76.0013,-26.6648 104.998,-51.3331 37.8346,-32.0006 66.0012,-72.6656 84.6693,-122.331 18.8307,-49.6687 28.1666,-106.5 28.1666,-170.335 0,-54.3331 -6.3358,-102.5 -19.0003,-144.501 -12.6681,-42.0007 -29.0005,-76.8317 -48.8348,-104.334 -20.0004,-27.4987 -41.665,-49.1634 -65.3333,-64.8315 -23.4986,-15.8342 -52.0009,-27.8344 -85.3337,-36.0006 -33.4988,-8.16622 -71.8317,-12.1663 -115.165,-12.1663l-258.333 0zm94.9981 84.0015l152.667 0c47.1669,0 84.1676,4.33223 110.998,13.1663 26.8344,8.83054 48.1669,21.1665 64.1672,37.1667 22.3361,22.4986 39.8346,52.8313 52.3331,90.832 12.502,38.0007 18.8343,84.0015 18.8343,138.169 0,74.9978 -12.3324,132.667 -36.8346,173 -24.4987,40.3329 -54.3331,67.3333 -89.4998,80.9979 -25.3326,9.8341 -66.1637,14.6681 -122.497,14.6681l-150.169 0 0 -547.999z"
           id="path19-7" /></glyph><glyph
         unicode="R"
         horiz-adv-x="722"
         id="glyph21-0"><path
           d="M79.0008 0l0 716.007 317.334 0c63.8229,0 112.324,-6.50997 145.503,-19.3321 33.1613,-12.8401 59.6687,-35.5171 79.4864,-68.013 19.8356,-32.4959 29.6725,-68.4986 29.6725,-107.828 0,-50.8389 -16.4907,-93.6753 -49.3283,-128.509 -32.8376,-34.8158 -83.4967,-56.8274 -152.175,-66.3226 25.1767,-11.9949 44.1671,-24.0078 57.1691,-35.661 27.6764,-25.3385 53.8421,-57.1691 78.3355,-95.3477l123.833 -194.993 -118.33 0 -94.6643 148.992c-27.4965,43.178 -50.3354,76.0156 -68.1749,98.8365 -18.0013,22.8389 -33.9885,38.6642 -48.1594,47.8357 -14.009,9.00966 -28.5036,15.3398 -43.178,19.0084 -10.6641,2.158 -28.1619,3.32692 -52.6552,3.32692l-109.662 0 0 -318 -95.006 0zm95.006 400.004l203.32 0c43.3399,0 77.0047,4.49584 101.336,13.4875 24.3315,8.84781 42.8363,23.1805 55.3348,43.0162 12.6603,19.6558 19.0084,40.984 19.0084,64.1646 0,33.8267 -12.1747,61.8267 -36.668,83.6585 -24.5113,21.8318 -63.1755,32.6757 -116.011,32.6757l-226.32 0 0 -237.003z"
           id="path23-9" /></glyph><glyph
         unicode="A"
         horiz-adv-x="667"
         id="glyph25-3"><path
           d="M-1.49826 0l274.666 715.999 104.164 0 291.5 -715.999 -107.832 0 -82.8319 217 -301.5 0 -77.6657 -217 -100.5 0zm205.997 294.002l244.001 0 -74.6656 198.498c-22.4986,60.3332 -39.4989,110.168 -51.3331,149.501 -9.8341,-46.6687 -23.0004,-92.4999 -39.4989,-137.833l-78.5032 -210.166z"
           id="path27-6" /></glyph><glyph
         unicode="-"
         horiz-adv-x="332"
         id="glyph29-0"><path
           d="M31.0033 215.009l0 87.9925 271.998 0 0 -87.9925 -271.998 0z"
           id="path31-6" /></glyph><glyph
         unicode="O"
         horiz-adv-x="777"
         id="glyph33-2"><path
           d="M47.9976 348.499c0,118.672 32.0104,211.664 95.8333,278.832 63.8409,67.1678 146.169,100.671 247.163,100.671 66.1787,0 125.668,-15.8433 178.844,-47.3322 52.9969,-31.5068 93.4954,-75.4941 121.334,-131.998 27.8202,-56.3418 41.8293,-120.345 41.8293,-191.846 0,-72.4909 -14.6744,-137.501 -44.0053,-194.652 -29.3308,-57.3489 -70.8364,-100.671 -124.499,-130.002 -53.8242,-29.5107 -111.838,-44.1671 -173.989,-44.1671 -67.5095,0 -127.682,16.3289 -180.841,48.8248 -52.9969,32.4959 -93.3336,76.8428 -120.668,133.167 -27.3347,56.162 -41.002,115.669 -41.002,178.503zm98.0092 -1.67245c0,-86.1582 23.1626,-153.991 69.4877,-203.5 46.3431,-49.4902 104.501,-74.3252 174.51,-74.3252 71.322,0 129.822,24.9969 176.003,74.9906 45.9834,50.0117 68.9841,121.01 68.9841,213.013 0,58.1581 -9.81891,108.997 -29.4927,152.319 -19.6738,43.3399 -48.5011,77.0047 -86.3381,100.851 -37.9988,23.8279 -80.4935,35.8228 -127.664,35.8228 -67.006,0 -124.661,-23.0007 -173,-69.0021 -48.3392,-46.0014 -72.4909,-122.664 -72.4909,-230.169z"
           id="path35-6" /></glyph><glyph
         unicode="Ô"
         horiz-adv-x="777"
         id="glyph37-1"><path
           d="M47.9976 348.499c0,118.672 32.0104,211.664 95.8333,278.832 63.8409,67.1678 146.169,100.671 247.163,100.671 66.1787,0 125.668,-15.8433 178.844,-47.3322 52.9969,-31.5068 93.4954,-75.4941 121.334,-131.998 27.8202,-56.3418 41.8293,-120.345 41.8293,-191.846 0,-72.4909 -14.6744,-137.501 -44.0053,-194.652 -29.3308,-57.3489 -70.8364,-100.671 -124.499,-130.002 -53.8242,-29.5107 -111.838,-44.1671 -173.989,-44.1671 -67.5095,0 -127.682,16.3289 -180.841,48.8248 -52.9969,32.4959 -93.3336,76.8428 -120.668,133.167 -27.3347,56.162 -41.002,115.669 -41.002,178.503zm98.0092 -1.67245c0,-86.1582 23.1626,-153.991 69.4877,-203.5 46.3431,-49.4902 104.501,-74.3252 174.51,-74.3252 71.322,0 129.822,24.9969 176.003,74.9906 45.9834,50.0117 68.9841,121.01 68.9841,213.013 0,58.1581 -9.81891,108.997 -29.4927,152.319 -19.6738,43.3399 -48.5011,77.0047 -86.3381,100.851 -37.9988,23.8279 -80.4935,35.8228 -127.664,35.8228 -67.006,0 -124.661,-23.0007 -173,-69.0021 -48.3392,-46.0014 -72.4909,-122.664 -72.4909,-230.169zm243.998 496.179l-54.5075 -83.0111 -100.005 0 104.501 136.997 93.0099 0 111.497 -136.997 -100.005 0 -54.4895 83.0111z"
           id="path39-8" /></glyph><glyph
         unicode="L"
         horiz-adv-x="556"
         id="glyph41-7"><path
           d="M72.9944 0l0 716.007 95.006 0 0 -632.007 352.006 0 0 -84.0002 -447.012 0z"
           id="path43-9" /></glyph><glyph
         unicode="Ã"
         horiz-adv-x="667"
         id="glyph45-2"><path
           d="M-1.49262 0l274.66 716.007 104.16 0 291.51 -716.007 -107.828 0 -82.8493 217.005 -301.491 0 -77.6701 -217.005 -100.491 0zm205.999 293.992l243.998 0 -74.6669 198.5c-22.4972,60.3341 -39.5094,110.166 -51.3425,149.514 -9.83689,-46.6668 -23.0007,-92.5063 -39.4914,-137.842l-78.4973 -210.171zm-41.5056 465.013c-0.341684,33.503 8.99167,60.1543 27.8382,80.1698 18.4869,19.8176 42.3328,29.8164 71.322,29.8164 20.1773,0 47.6739,-8.48814 82.3457,-25.6622 19.1523,-9.49521 34.4921,-14.3327 45.8216,-14.3327 10.5023,0 18.5049,2.84137 24.0078,8.50612 5.5029,5.5029 9.33336,16.8324 11.6712,33.503l62.9957 0c-1.00707,-37.0097 -10.3404,-64.6681 -28.0001,-83.173 -17.6776,-18.5049 -39.995,-27.8382 -67.3297,-27.8382 -20.3392,0 -47.3322,9.17151 -80.6733,27.3347 -21.8318,11.833 -37.837,17.6776 -47.9976,17.6776 -11.0058,0 -19.9975,-3.84844 -26.6693,-11.6712 -7.17536,-7.66091 -10.6641,-19.1702 -10.3404,-34.3302l-64.9918 0z"
           id="path47-0" /></glyph><glyph
         unicode="Z"
         horiz-adv-x="610"
         id="glyph49-2"><path
           d="M19.9975 0l0 87.507 366.662 458.989c26.3456,32.3341 51.0008,60.8377 74.505,85.5108l-399.158 0 0 84.0002 511.986 0 0 -84.0002 -402.162 -496.682 -42.9982 -51.3245 457.173 0 0 -84.0002 -566.008 0z"
           id="path51-3" /></glyph><glyph
         unicode="I"
         horiz-adv-x="277"
         id="glyph53-7"><path
           d="M92.9919 0l0 716.007 95.006 0 0 -716.007 -95.006 0z"
           id="path55-5" /></glyph><glyph
         unicode="C"
         horiz-adv-x="722"
         id="glyph57-9"><path
           d="M586.994 251.173l95.006 -24.0078c-19.8356,-77.8319 -55.4966,-136.997 -107.001,-177.837 -51.5043,-40.8222 -114.5,-61.3232 -189.005,-61.3232 -76.9867,0 -139.659,15.6635 -187.998,47.1703 -48.3213,31.327 -84.9893,76.8249 -110.166,136.332 -25.1587,59.6508 -37.837,123.492 -37.837,191.828 0,74.505 14.1709,139.497 42.6745,194.993 28.5036,55.4966 69.0021,97.6676 121.495,126.513 52.5114,28.8273 110.328,43.16 173.341,43.16 71.6636,0 131.836,-18.1632 180.499,-54.6694 48.8248,-36.5062 82.8313,-87.6688 102.002,-153.668l-93.0099 -21.9936c-16.4907,51.9899 -40.6603,89.9887 -72.1672,113.655 -31.4888,23.8459 -71.1601,35.679 -118.996,35.679 -54.8312,0 -100.833,-13.1638 -137.663,-39.5094 -36.8299,-26.3276 -62.8338,-61.8267 -77.6701,-106.156 -14.9981,-44.5088 -22.4972,-90.3483 -22.4972,-137.501 0,-60.8377 8.82982,-114.014 26.4895,-159.332 17.6776,-45.4979 45.1742,-79.3425 82.5076,-101.84 37.3334,-22.4972 77.6701,-33.6648 121.172,-33.6648 52.9969,0 97.6676,15.3398 134.336,45.8396 36.668,30.6616 61.4851,75.9976 74.487,136.332z"
           id="path59-2" /></glyph><glyph
         unicode="T"
         horiz-adv-x="610"
         id="glyph61-2"><path
           d="M258.996 0l0 632.007 -235.995 0 0 84.0002 566.997 0 0 -84.0002 -235.995 0 0 -632.007 -95.006 0z"
           id="path63-8" /></glyph><glyph
         unicode="N"
         horiz-adv-x="722"
         id="glyph65-9"><path
           d="M75.9976 0l0 716.007 97.3439 0 375.654 -562.016 0 562.016 90.9957 0 0 -716.007 -97.3259 0 -375.672 561.998 0 -561.998 -90.9957 0z"
           id="path67-7" /></glyph><glyph
         unicode="Ó"
         horiz-adv-x="777"
         id="glyph69-3"><path
           d="M47.9976 348.499c0,118.672 32.0104,211.664 95.8333,278.832 63.8409,67.1678 146.169,100.671 247.163,100.671 66.1787,0 125.668,-15.8433 178.844,-47.3322 52.9969,-31.5068 93.4954,-75.4941 121.334,-131.998 27.8202,-56.3418 41.8293,-120.345 41.8293,-191.846 0,-72.4909 -14.6744,-137.501 -44.0053,-194.652 -29.3308,-57.3489 -70.8364,-100.671 -124.499,-130.002 -53.8242,-29.5107 -111.838,-44.1671 -173.989,-44.1671 -67.5095,0 -127.682,16.3289 -180.841,48.8248 -52.9969,32.4959 -93.3336,76.8428 -120.668,133.167 -27.3347,56.162 -41.002,115.669 -41.002,178.503zm98.0092 -1.67245c0,-86.1582 23.1626,-153.991 69.4877,-203.5 46.3431,-49.4902 104.501,-74.3252 174.51,-74.3252 71.322,0 129.822,24.9969 176.003,74.9906 45.9834,50.0117 68.9841,121.01 68.9841,213.013 0,58.1581 -9.81891,108.997 -29.4927,152.319 -19.6738,43.3399 -48.5011,77.0047 -86.3381,100.851 -37.9988,23.8279 -80.4935,35.8228 -127.664,35.8228 -67.006,0 -124.661,-23.0007 -173,-69.0021 -48.3392,-46.0014 -72.4909,-122.664 -72.4909,-230.169zm171.993 413.167l64.0027 136.997 115.993 0 -107.001 -136.997 -72.9944 0z"
           id="path71-6" /></glyph><glyph
         unicode="V"
         horiz-adv-x="667"
         id="glyph73-1"><path
           d="M281.008 0l-276.674 716.007 102.667 0 186.002 -520.348c14.8363,-41.6674 27.4965,-80.6553 37.4953,-117.162 11.0058,39.1677 23.8279,78.1736 38.5023,117.162l192.997 520.348 96.6605 0 -279.156 -716.007 -98.4948 0z"
           id="path75-2" /></glyph><glyph
         unicode="E"
         horiz-adv-x="667"
         id="glyph77-9"><path
           d="M79.0014 0l0 715.999 516.999 0 0 -83.998 -422 0 0 -220 395 0 0 -84.0015 -395 0 0 -243.997 439.001 0 0 -84.0015 -533.999 0z"
           id="path79-3" /></glyph><glyph
         unicode="S"
         horiz-adv-x="667"
         id="glyph81-1"><path
           d="M46.0014 230.007l88.9996 7.98461c4.17214,-35.9847 13.991,-65.4954 29.4927,-88.6579 15.5016,-23.0007 39.5094,-41.6674 72.0053,-56.0001 32.4959,-14.1709 69.164,-21.3283 109.842,-21.3283 36.1645,0 67.995,5.32307 95.6534,16.167 27.6764,10.826 48.1774,25.6622 61.6649,44.4908 13.5055,18.8286 20.3392,39.3296 20.3392,61.3412 0,22.3353 -6.49199,41.8293 -19.4939,58.6617 -13.002,16.6706 -34.51,30.6616 -64.5063,42.1709 -19.1702,7.33721 -61.6649,18.9904 -127.502,34.8337 -65.837,15.8253 -111.838,30.6616 -138.166,44.6706 -34.1684,17.9833 -59.4889,40.3187 -76.1595,66.8261 -16.8324,26.5075 -25.1767,56.3238 -25.1767,89.1614 0,36.3443 10.3404,70.171 30.8414,101.498 20.501,31.5068 50.3354,55.3348 89.8268,71.6816 39.3296,16.3289 83.173,24.4933 131.332,24.4933 52.9969,0 99.8435,-8.50612 140.342,-25.6622 40.4985,-17.0122 71.6636,-42.1709 93.4954,-75.5121 21.8318,-33.1613 33.503,-70.8364 35.1754,-112.828l-91.0137 -6.99552c-4.81954,45.1562 -21.3283,79.3245 -49.4902,102.325 -28.1619,23.1626 -69.8293,34.6719 -124.84,34.6719 -57.3309,0 -99.1602,-10.5023 -125.326,-31.5068 -26.1658,-20.9866 -39.3296,-46.3251 -39.3296,-75.9976 0,-25.6622 9.33336,-46.8286 27.8202,-63.4992 18.343,-16.4907 65.837,-33.6648 142.842,-51.0008 77.0047,-17.4978 129.822,-32.6578 158.505,-45.6597 41.4876,-19.1702 72.329,-43.3399 92.1647,-72.8326 19.8356,-29.3308 29.6545,-63.1755 29.6545,-101.498 0,-38.1786 -10.826,-73.8396 -32.6578,-107.504 -21.8318,-33.6648 -52.9969,-59.8306 -93.8371,-78.4973 -40.8402,-18.6667 -86.6618,-28.0001 -137.824,-28.0001 -64.6681,0 -118.834,9.49521 -162.516,28.3238 -43.8254,18.8465 -77.9938,47.1703 -102.829,85.1691 -24.9969,37.837 -37.9988,80.6733 -39.3296,128.509z"
           id="path83-9" /></glyph><glyph
         unicode=" "
         horiz-adv-x="277"
         id="glyph85-4" /><glyph
         unicode="Ç"
         horiz-adv-x="722"
         id="glyph87-7"><path
           d="M586.994 251.173l95.006 -24.0078c-19.8356,-77.8319 -55.4966,-136.997 -107.001,-177.837 -51.5043,-40.8222 -114.5,-61.3232 -189.005,-61.3232 -76.9867,0 -139.659,15.6635 -187.998,47.1703 -48.3213,31.327 -84.9893,76.8249 -110.166,136.332 -25.1587,59.6508 -37.837,123.492 -37.837,191.828 0,74.505 14.1709,139.497 42.6745,194.993 28.5036,55.4966 69.0021,97.6676 121.495,126.513 52.5114,28.8273 110.328,43.16 173.341,43.16 71.6636,0 131.836,-18.1632 180.499,-54.6694 48.8248,-36.5062 82.8313,-87.6688 102.002,-153.668l-93.0099 -21.9936c-16.4907,51.9899 -40.6603,89.9887 -72.1672,113.655 -31.4888,23.8459 -71.1601,35.679 -118.996,35.679 -54.8312,0 -100.833,-13.1638 -137.663,-39.5094 -36.8299,-26.3276 -62.8338,-61.8267 -77.6701,-106.156 -14.9981,-44.5088 -22.4972,-90.3483 -22.4972,-137.501 0,-60.8377 8.82982,-114.014 26.4895,-159.332 17.6776,-45.4979 45.1742,-79.3425 82.5076,-101.84 37.3334,-22.4972 77.6701,-33.6648 121.172,-33.6648 52.9969,0 97.6676,15.3398 134.336,45.8396 36.668,30.6616 61.4851,75.9976 74.487,136.332zm-277.321 -337.17l25.3206 85.9964 65.0098 0 -16.167 -52.0078c27.8382,-3.32692 48.8248,-11.833 62.9957,-25.6622 14.1709,-13.6673 21.1664,-28.9892 21.1664,-45.8216 0,-24.3495 -11.833,-45.8396 -35.4991,-64.5063 -23.5042,-18.6667 -59.1652,-28.0001 -106.659,-28.0001 -26.8491,0 -50.5152,0 -70.8364,0l4.99937 62.0066c21.1664,-0.683367 36.4882,-1.00707 46.5049,-1.00707 30.8235,0 52.6552,4.17214 65.1537,12.6603 9.51319,6.50997 14.3327,14.3327 14.3327,23.8459 0,5.8266 -1.8343,10.9878 -5.66475,15.4837 -3.6686,4.51382 -10.5023,8.50612 -20.501,11.6712 -10.1606,3.16507 -26.8312,4.99937 -50.1556,5.34105z"
           id="path89-8" /></glyph><glyph
         unicode="P"
         horiz-adv-x="667"
         id="glyph91-4"><path
           d="M77.0014 0l0 715.999 270.333 0c47.4991,0 83.8319,-2.3322 108.998,-6.83051 35.1667,-5.83403 64.6655,-17.0003 88.4998,-33.3363 23.8343,-16.4985 43.0008,-39.4989 57.4992,-68.9977 14.502,-29.5023 21.6682,-62.0011 21.6682,-97.5 0,-60.6689 -19.3325,-112.168 -58.1671,-154.169 -38.665,-42.1668 -108.832,-63.1637 -210.166,-63.1637l-183.668 0 0 -292.002 -94.9981 0zm94.9981 376l185 0c61.3332,0 104.666,11.3324 130.501,34.1667 25.6683,22.8343 38.4989,54.8349 38.4989,96.3339 0,29.8344 -7.49837,55.4992 -22.6647,76.8317 -15.1663,21.3361 -35.1667,35.5024 -59.835,42.3364 -16.0003,4.16615 -45.499,6.33227 -88.3337,6.33227l-183.166 0 0 -256.001z"
           id="path93-5" /></glyph><glyph
         unicode="M"
         horiz-adv-x="833"
         id="glyph95-0"><path
           d="M75.0013 0l0 715.999 141.999 0 169.332 -506.832c15.6681,-47.1669 27.0005,-82.4997 34.1667,-105.998 8.16976,26.0005 21.0004,64.3333 38.3364,114.832l172.332 497.998 126.833 0 0 -715.999 -90.9981 0 0 599 -209 -599 -85.3337 0 -206.668 610 0 -610 -90.9981 0z"
           id="path97-3" /></glyph><glyph
         unicode="G"
         horiz-adv-x="777"
         id="glyph99-6"><path
           d="M412 281.001l0 83.998 302.998 0 0 -265.333c-46.4991,-37.0007 -94.4999,-65.0011 -143.999,-83.6658 -49.4991,-18.6682 -100.334,-28.0005 -152.331,-28.0005 -70.3334,0 -134.168,15.0003 -191.668,45.1669 -57.3332,30.0005 -100.832,73.6656 -129.999,130.501 -29.3362,57.001 -44.0008,120.666 -44.0008,190.834 0,69.6655 14.4985,134.667 43.6651,195.166 29.1666,60.3332 71.0013,105.168 125.667,134.335 54.6688,29.3327 117.666,43.9972 189,43.9972 51.6688,0 98.5,-8.3323 140.335,-25.1665 41.8347,-16.8307 74.6656,-40.1668 98.3339,-69.9977 23.8308,-30.0005 41.8311,-69.1673 54.167,-117.334l-85.4997 -23.3326c-10.8341,36.3328 -24.1665,64.9976 -40.0007,85.998 -16.0003,20.8343 -38.6685,37.5024 -68.3334,50.0009 -29.5023,12.4985 -62.3333,18.8343 -98.5,18.8343 -43.1668,0 -80.4997,-6.66796 -112.168,-19.8343 -31.4988,-13.1663 -56.8314,-30.4988 -76.3335,-52.167 -19.3325,-21.4986 -34.3328,-45.1669 -45.0008,-70.8316 -18.1664,-44.5026 -27.3326,-92.4999 -27.3326,-144.335 0,-64.0011 11.0002,-117.5 32.8345,-160.667 22.0004,-43.0008 54.001,-74.9978 95.8321,-95.8321 42.0007,-20.8343 86.4998,-31.3327 133.667,-31.3327 41.0007,0 81.0014,8.00014 120.002,23.8308 38.9972,16.0003 68.4994,32.8345 88.6659,51.0009l0 134.168 -210 0z"
           id="path101-1" /></glyph></font><style
       type="text/css"
       id="style103-0">
   
    @font-face { font-family:&quot;Arial&quot;;src:url(&quot;#FontID0&quot;) format(svg)}
    .fil3 {fill:#373435}
    .fil2 {fill:#544430}
    .fil1 {fill:#68944A}
    .fil0 {fill:#FEFEFE}
    .fnt1 {font-weight:normal;font-size:556.07;font-family:'Arial'}
    .fnt0 {font-weight:normal;font-size:2829.95;font-family:'Arial'}
   
  </style><font
       font-weight="400"
       font-style="normal"
       style="fill-rule:nonzero"
       font-variant="normal"
       horiz-adv-x="667"
       id="FontID0-6"><font-face
         id="font-face7-9"
         font-family="Arial" /><missing-glyph
         id="missing-glyph9-3"><path
           id="path11-7"
           d="M0 0z" /></missing-glyph><glyph
         id="glyph13-4"
         horiz-adv-x="722"
         unicode="U"><path
           id="path15-5"
           d="M545.992 716.007l95.006 0 0 -413.509c0,-72.0053 -8.16444,-129.156 -24.3315,-171.489 -16.3289,-42.1709 -45.6597,-76.681 -87.9925,-103.17 -42.5126,-26.5075 -98.0092,-39.8331 -167.011,-39.8331 -66.8261,0 -121.657,11.4914 -164.17,34.6539 -42.6565,23.1805 -72.9944,56.5037 -91.1576,100.347 -18.1632,43.8254 -27.3347,103.656 -27.3347,179.492l0 413.509 95.006 0 0 -413.347c0,-62.1684 5.8266,-108.152 17.318,-137.501 11.5093,-29.4927 31.1831,-52.3315 59.345,-68.1569 28.0001,-16.0052 62.3303,-24.0078 102.829,-24.0078 69.3258,0 118.834,15.8433 148.327,47.3322 29.5107,31.6687 44.1671,92.3445 44.1671,182.333l0 413.347z" /></glyph><glyph
         id="glyph17-25"
         horiz-adv-x="722"
         unicode="D"><path
           id="path19-4"
           d="M77.0014 0l0 715.999 246.665 0c55.6653,0 98.1678,-3.33221 127.5,-10.1663 41.0007,-9.4984 76.0013,-26.6648 104.998,-51.3331 37.8346,-32.0006 66.0012,-72.6656 84.6693,-122.331 18.8307,-49.6687 28.1666,-106.5 28.1666,-170.335 0,-54.3331 -6.3358,-102.5 -19.0003,-144.501 -12.6681,-42.0007 -29.0005,-76.8317 -48.8348,-104.334 -20.0004,-27.4987 -41.665,-49.1634 -65.3333,-64.8315 -23.4986,-15.8342 -52.0009,-27.8344 -85.3337,-36.0006 -33.4988,-8.16622 -71.8317,-12.1663 -115.165,-12.1663l-258.333 0zm94.9981 84.0015l152.667 0c47.1669,0 84.1676,4.33223 110.998,13.1663 26.8344,8.83054 48.1669,21.1665 64.1672,37.1667 22.3361,22.4986 39.8346,52.8313 52.3331,90.832 12.502,38.0007 18.8343,84.0015 18.8343,138.169 0,74.9978 -12.3324,132.667 -36.8346,173 -24.4987,40.3329 -54.3331,67.3333 -89.4998,80.9979 -25.3326,9.8341 -66.1637,14.6681 -122.497,14.6681l-150.169 0 0 -547.999z" /></glyph><glyph
         id="glyph21-7"
         horiz-adv-x="722"
         unicode="R"><path
           id="path23-4"
           d="M79.0008 0l0 716.007 317.334 0c63.8229,0 112.324,-6.50997 145.503,-19.3321 33.1613,-12.8401 59.6687,-35.5171 79.4864,-68.013 19.8356,-32.4959 29.6725,-68.4986 29.6725,-107.828 0,-50.8389 -16.4907,-93.6753 -49.3283,-128.509 -32.8376,-34.8158 -83.4967,-56.8274 -152.175,-66.3226 25.1767,-11.9949 44.1671,-24.0078 57.1691,-35.661 27.6764,-25.3385 53.8421,-57.1691 78.3355,-95.3477l123.833 -194.993 -118.33 0 -94.6643 148.992c-27.4965,43.178 -50.3354,76.0156 -68.1749,98.8365 -18.0013,22.8389 -33.9885,38.6642 -48.1594,47.8357 -14.009,9.00966 -28.5036,15.3398 -43.178,19.0084 -10.6641,2.158 -28.1619,3.32692 -52.6552,3.32692l-109.662 0 0 -318 -95.006 0zm95.006 400.004l203.32 0c43.3399,0 77.0047,4.49584 101.336,13.4875 24.3315,8.84781 42.8363,23.1805 55.3348,43.0162 12.6603,19.6558 19.0084,40.984 19.0084,64.1646 0,33.8267 -12.1747,61.8267 -36.668,83.6585 -24.5113,21.8318 -63.1755,32.6757 -116.011,32.6757l-226.32 0 0 -237.003z" /></glyph><glyph
         id="glyph25-4"
         horiz-adv-x="667"
         unicode="A"><path
           id="path27-3"
           d="M-1.49826 0l274.666 715.999 104.164 0 291.5 -715.999 -107.832 0 -82.8319 217 -301.5 0 -77.6657 -217 -100.5 0zm205.997 294.002l244.001 0 -74.6656 198.498c-22.4986,60.3332 -39.4989,110.168 -51.3331,149.501 -9.8341,-46.6687 -23.0004,-92.4999 -39.4989,-137.833l-78.5032 -210.166z" /></glyph><glyph
         id="glyph29-07"
         horiz-adv-x="332"
         unicode="-"><path
           id="path31-8"
           d="M31.0033 215.009l0 87.9925 271.998 0 0 -87.9925 -271.998 0z" /></glyph><glyph
         id="glyph33-68"
         horiz-adv-x="777"
         unicode="O"><path
           id="path35-8"
           d="M47.9976 348.499c0,118.672 32.0104,211.664 95.8333,278.832 63.8409,67.1678 146.169,100.671 247.163,100.671 66.1787,0 125.668,-15.8433 178.844,-47.3322 52.9969,-31.5068 93.4954,-75.4941 121.334,-131.998 27.8202,-56.3418 41.8293,-120.345 41.8293,-191.846 0,-72.4909 -14.6744,-137.501 -44.0053,-194.652 -29.3308,-57.3489 -70.8364,-100.671 -124.499,-130.002 -53.8242,-29.5107 -111.838,-44.1671 -173.989,-44.1671 -67.5095,0 -127.682,16.3289 -180.841,48.8248 -52.9969,32.4959 -93.3336,76.8428 -120.668,133.167 -27.3347,56.162 -41.002,115.669 -41.002,178.503zm98.0092 -1.67245c0,-86.1582 23.1626,-153.991 69.4877,-203.5 46.3431,-49.4902 104.501,-74.3252 174.51,-74.3252 71.322,0 129.822,24.9969 176.003,74.9906 45.9834,50.0117 68.9841,121.01 68.9841,213.013 0,58.1581 -9.81891,108.997 -29.4927,152.319 -19.6738,43.3399 -48.5011,77.0047 -86.3381,100.851 -37.9988,23.8279 -80.4935,35.8228 -127.664,35.8228 -67.006,0 -124.661,-23.0007 -173,-69.0021 -48.3392,-46.0014 -72.4909,-122.664 -72.4909,-230.169z" /></glyph><glyph
         id="glyph37-4"
         horiz-adv-x="777"
         unicode="Ô"><path
           id="path39-3"
           d="M47.9976 348.499c0,118.672 32.0104,211.664 95.8333,278.832 63.8409,67.1678 146.169,100.671 247.163,100.671 66.1787,0 125.668,-15.8433 178.844,-47.3322 52.9969,-31.5068 93.4954,-75.4941 121.334,-131.998 27.8202,-56.3418 41.8293,-120.345 41.8293,-191.846 0,-72.4909 -14.6744,-137.501 -44.0053,-194.652 -29.3308,-57.3489 -70.8364,-100.671 -124.499,-130.002 -53.8242,-29.5107 -111.838,-44.1671 -173.989,-44.1671 -67.5095,0 -127.682,16.3289 -180.841,48.8248 -52.9969,32.4959 -93.3336,76.8428 -120.668,133.167 -27.3347,56.162 -41.002,115.669 -41.002,178.503zm98.0092 -1.67245c0,-86.1582 23.1626,-153.991 69.4877,-203.5 46.3431,-49.4902 104.501,-74.3252 174.51,-74.3252 71.322,0 129.822,24.9969 176.003,74.9906 45.9834,50.0117 68.9841,121.01 68.9841,213.013 0,58.1581 -9.81891,108.997 -29.4927,152.319 -19.6738,43.3399 -48.5011,77.0047 -86.3381,100.851 -37.9988,23.8279 -80.4935,35.8228 -127.664,35.8228 -67.006,0 -124.661,-23.0007 -173,-69.0021 -48.3392,-46.0014 -72.4909,-122.664 -72.4909,-230.169zm243.998 496.179l-54.5075 -83.0111 -100.005 0 104.501 136.997 93.0099 0 111.497 -136.997 -100.005 0 -54.4895 83.0111z" /></glyph><glyph
         id="glyph41-1"
         horiz-adv-x="556"
         unicode="L"><path
           id="path43-4"
           d="M72.9944 0l0 716.007 95.006 0 0 -632.007 352.006 0 0 -84.0002 -447.012 0z" /></glyph><glyph
         id="glyph45-9"
         horiz-adv-x="667"
         unicode="Ã"><path
           id="path47-20"
           d="M-1.49262 0l274.66 716.007 104.16 0 291.51 -716.007 -107.828 0 -82.8493 217.005 -301.491 0 -77.6701 -217.005 -100.491 0zm205.999 293.992l243.998 0 -74.6669 198.5c-22.4972,60.3341 -39.5094,110.166 -51.3425,149.514 -9.83689,-46.6668 -23.0007,-92.5063 -39.4914,-137.842l-78.4973 -210.171zm-41.5056 465.013c-0.341684,33.503 8.99167,60.1543 27.8382,80.1698 18.4869,19.8176 42.3328,29.8164 71.322,29.8164 20.1773,0 47.6739,-8.48814 82.3457,-25.6622 19.1523,-9.49521 34.4921,-14.3327 45.8216,-14.3327 10.5023,0 18.5049,2.84137 24.0078,8.50612 5.5029,5.5029 9.33336,16.8324 11.6712,33.503l62.9957 0c-1.00707,-37.0097 -10.3404,-64.6681 -28.0001,-83.173 -17.6776,-18.5049 -39.995,-27.8382 -67.3297,-27.8382 -20.3392,0 -47.3322,9.17151 -80.6733,27.3347 -21.8318,11.833 -37.837,17.6776 -47.9976,17.6776 -11.0058,0 -19.9975,-3.84844 -26.6693,-11.6712 -7.17536,-7.66091 -10.6641,-19.1702 -10.3404,-34.3302l-64.9918 0z" /></glyph><glyph
         id="glyph49-6"
         horiz-adv-x="610"
         unicode="Z"><path
           id="path51-8"
           d="M19.9975 0l0 87.507 366.662 458.989c26.3456,32.3341 51.0008,60.8377 74.505,85.5108l-399.158 0 0 84.0002 511.986 0 0 -84.0002 -402.162 -496.682 -42.9982 -51.3245 457.173 0 0 -84.0002 -566.008 0z" /></glyph><glyph
         id="glyph53-9"
         horiz-adv-x="277"
         unicode="I"><path
           id="path55-2"
           d="M92.9919 0l0 716.007 95.006 0 0 -716.007 -95.006 0z" /></glyph><glyph
         id="glyph57-6"
         horiz-adv-x="722"
         unicode="C"><path
           id="path59-6"
           d="M586.994 251.173l95.006 -24.0078c-19.8356,-77.8319 -55.4966,-136.997 -107.001,-177.837 -51.5043,-40.8222 -114.5,-61.3232 -189.005,-61.3232 -76.9867,0 -139.659,15.6635 -187.998,47.1703 -48.3213,31.327 -84.9893,76.8249 -110.166,136.332 -25.1587,59.6508 -37.837,123.492 -37.837,191.828 0,74.505 14.1709,139.497 42.6745,194.993 28.5036,55.4966 69.0021,97.6676 121.495,126.513 52.5114,28.8273 110.328,43.16 173.341,43.16 71.6636,0 131.836,-18.1632 180.499,-54.6694 48.8248,-36.5062 82.8313,-87.6688 102.002,-153.668l-93.0099 -21.9936c-16.4907,51.9899 -40.6603,89.9887 -72.1672,113.655 -31.4888,23.8459 -71.1601,35.679 -118.996,35.679 -54.8312,0 -100.833,-13.1638 -137.663,-39.5094 -36.8299,-26.3276 -62.8338,-61.8267 -77.6701,-106.156 -14.9981,-44.5088 -22.4972,-90.3483 -22.4972,-137.501 0,-60.8377 8.82982,-114.014 26.4895,-159.332 17.6776,-45.4979 45.1742,-79.3425 82.5076,-101.84 37.3334,-22.4972 77.6701,-33.6648 121.172,-33.6648 52.9969,0 97.6676,15.3398 134.336,45.8396 36.668,30.6616 61.4851,75.9976 74.487,136.332z" /></glyph><glyph
         id="glyph61-4"
         horiz-adv-x="610"
         unicode="T"><path
           id="path63-9"
           d="M258.996 0l0 632.007 -235.995 0 0 84.0002 566.997 0 0 -84.0002 -235.995 0 0 -632.007 -95.006 0z" /></glyph><glyph
         id="glyph65-5"
         horiz-adv-x="722"
         unicode="N"><path
           id="path67-0"
           d="M75.9976 0l0 716.007 97.3439 0 375.654 -562.016 0 562.016 90.9957 0 0 -716.007 -97.3259 0 -375.672 561.998 0 -561.998 -90.9957 0z" /></glyph><glyph
         id="glyph69-4"
         horiz-adv-x="777"
         unicode="Ó"><path
           id="path71-8"
           d="M47.9976 348.499c0,118.672 32.0104,211.664 95.8333,278.832 63.8409,67.1678 146.169,100.671 247.163,100.671 66.1787,0 125.668,-15.8433 178.844,-47.3322 52.9969,-31.5068 93.4954,-75.4941 121.334,-131.998 27.8202,-56.3418 41.8293,-120.345 41.8293,-191.846 0,-72.4909 -14.6744,-137.501 -44.0053,-194.652 -29.3308,-57.3489 -70.8364,-100.671 -124.499,-130.002 -53.8242,-29.5107 -111.838,-44.1671 -173.989,-44.1671 -67.5095,0 -127.682,16.3289 -180.841,48.8248 -52.9969,32.4959 -93.3336,76.8428 -120.668,133.167 -27.3347,56.162 -41.002,115.669 -41.002,178.503zm98.0092 -1.67245c0,-86.1582 23.1626,-153.991 69.4877,-203.5 46.3431,-49.4902 104.501,-74.3252 174.51,-74.3252 71.322,0 129.822,24.9969 176.003,74.9906 45.9834,50.0117 68.9841,121.01 68.9841,213.013 0,58.1581 -9.81891,108.997 -29.4927,152.319 -19.6738,43.3399 -48.5011,77.0047 -86.3381,100.851 -37.9988,23.8279 -80.4935,35.8228 -127.664,35.8228 -67.006,0 -124.661,-23.0007 -173,-69.0021 -48.3392,-46.0014 -72.4909,-122.664 -72.4909,-230.169zm171.993 413.167l64.0027 136.997 115.993 0 -107.001 -136.997 -72.9944 0z" /></glyph><glyph
         id="glyph73-7"
         horiz-adv-x="667"
         unicode="V"><path
           id="path75-1"
           d="M281.008 0l-276.674 716.007 102.667 0 186.002 -520.348c14.8363,-41.6674 27.4965,-80.6553 37.4953,-117.162 11.0058,39.1677 23.8279,78.1736 38.5023,117.162l192.997 520.348 96.6605 0 -279.156 -716.007 -98.4948 0z" /></glyph><glyph
         id="glyph77-7"
         horiz-adv-x="667"
         unicode="E"><path
           id="path79-2"
           d="M79.0014 0l0 715.999 516.999 0 0 -83.998 -422 0 0 -220 395 0 0 -84.0015 -395 0 0 -243.997 439.001 0 0 -84.0015 -533.999 0z" /></glyph><glyph
         id="glyph81-7"
         horiz-adv-x="667"
         unicode="S"><path
           id="path83-2"
           d="M46.0014 230.007l88.9996 7.98461c4.17214,-35.9847 13.991,-65.4954 29.4927,-88.6579 15.5016,-23.0007 39.5094,-41.6674 72.0053,-56.0001 32.4959,-14.1709 69.164,-21.3283 109.842,-21.3283 36.1645,0 67.995,5.32307 95.6534,16.167 27.6764,10.826 48.1774,25.6622 61.6649,44.4908 13.5055,18.8286 20.3392,39.3296 20.3392,61.3412 0,22.3353 -6.49199,41.8293 -19.4939,58.6617 -13.002,16.6706 -34.51,30.6616 -64.5063,42.1709 -19.1702,7.33721 -61.6649,18.9904 -127.502,34.8337 -65.837,15.8253 -111.838,30.6616 -138.166,44.6706 -34.1684,17.9833 -59.4889,40.3187 -76.1595,66.8261 -16.8324,26.5075 -25.1767,56.3238 -25.1767,89.1614 0,36.3443 10.3404,70.171 30.8414,101.498 20.501,31.5068 50.3354,55.3348 89.8268,71.6816 39.3296,16.3289 83.173,24.4933 131.332,24.4933 52.9969,0 99.8435,-8.50612 140.342,-25.6622 40.4985,-17.0122 71.6636,-42.1709 93.4954,-75.5121 21.8318,-33.1613 33.503,-70.8364 35.1754,-112.828l-91.0137 -6.99552c-4.81954,45.1562 -21.3283,79.3245 -49.4902,102.325 -28.1619,23.1626 -69.8293,34.6719 -124.84,34.6719 -57.3309,0 -99.1602,-10.5023 -125.326,-31.5068 -26.1658,-20.9866 -39.3296,-46.3251 -39.3296,-75.9976 0,-25.6622 9.33336,-46.8286 27.8202,-63.4992 18.343,-16.4907 65.837,-33.6648 142.842,-51.0008 77.0047,-17.4978 129.822,-32.6578 158.505,-45.6597 41.4876,-19.1702 72.329,-43.3399 92.1647,-72.8326 19.8356,-29.3308 29.6545,-63.1755 29.6545,-101.498 0,-38.1786 -10.826,-73.8396 -32.6578,-107.504 -21.8318,-33.6648 -52.9969,-59.8306 -93.8371,-78.4973 -40.8402,-18.6667 -86.6618,-28.0001 -137.824,-28.0001 -64.6681,0 -118.834,9.49521 -162.516,28.3238 -43.8254,18.8465 -77.9938,47.1703 -102.829,85.1691 -24.9969,37.837 -37.9988,80.6733 -39.3296,128.509z" /></glyph><glyph
         id="glyph85-2"
         horiz-adv-x="277"
         unicode=" " /><glyph
         id="glyph87-6"
         horiz-adv-x="722"
         unicode="Ç"><path
           id="path89-1"
           d="M586.994 251.173l95.006 -24.0078c-19.8356,-77.8319 -55.4966,-136.997 -107.001,-177.837 -51.5043,-40.8222 -114.5,-61.3232 -189.005,-61.3232 -76.9867,0 -139.659,15.6635 -187.998,47.1703 -48.3213,31.327 -84.9893,76.8249 -110.166,136.332 -25.1587,59.6508 -37.837,123.492 -37.837,191.828 0,74.505 14.1709,139.497 42.6745,194.993 28.5036,55.4966 69.0021,97.6676 121.495,126.513 52.5114,28.8273 110.328,43.16 173.341,43.16 71.6636,0 131.836,-18.1632 180.499,-54.6694 48.8248,-36.5062 82.8313,-87.6688 102.002,-153.668l-93.0099 -21.9936c-16.4907,51.9899 -40.6603,89.9887 -72.1672,113.655 -31.4888,23.8459 -71.1601,35.679 -118.996,35.679 -54.8312,0 -100.833,-13.1638 -137.663,-39.5094 -36.8299,-26.3276 -62.8338,-61.8267 -77.6701,-106.156 -14.9981,-44.5088 -22.4972,-90.3483 -22.4972,-137.501 0,-60.8377 8.82982,-114.014 26.4895,-159.332 17.6776,-45.4979 45.1742,-79.3425 82.5076,-101.84 37.3334,-22.4972 77.6701,-33.6648 121.172,-33.6648 52.9969,0 97.6676,15.3398 134.336,45.8396 36.668,30.6616 61.4851,75.9976 74.487,136.332zm-277.321 -337.17l25.3206 85.9964 65.0098 0 -16.167 -52.0078c27.8382,-3.32692 48.8248,-11.833 62.9957,-25.6622 14.1709,-13.6673 21.1664,-28.9892 21.1664,-45.8216 0,-24.3495 -11.833,-45.8396 -35.4991,-64.5063 -23.5042,-18.6667 -59.1652,-28.0001 -106.659,-28.0001 -26.8491,0 -50.5152,0 -70.8364,0l4.99937 62.0066c21.1664,-0.683367 36.4882,-1.00707 46.5049,-1.00707 30.8235,0 52.6552,4.17214 65.1537,12.6603 9.51319,6.50997 14.3327,14.3327 14.3327,23.8459 0,5.8266 -1.8343,10.9878 -5.66475,15.4837 -3.6686,4.51382 -10.5023,8.50612 -20.501,11.6712 -10.1606,3.16507 -26.8312,4.99937 -50.1556,5.34105z" /></glyph><glyph
         id="glyph91-06"
         horiz-adv-x="667"
         unicode="P"><path
           id="path93-1"
           d="M77.0014 0l0 715.999 270.333 0c47.4991,0 83.8319,-2.3322 108.998,-6.83051 35.1667,-5.83403 64.6655,-17.0003 88.4998,-33.3363 23.8343,-16.4985 43.0008,-39.4989 57.4992,-68.9977 14.502,-29.5023 21.6682,-62.0011 21.6682,-97.5 0,-60.6689 -19.3325,-112.168 -58.1671,-154.169 -38.665,-42.1668 -108.832,-63.1637 -210.166,-63.1637l-183.668 0 0 -292.002 -94.9981 0zm94.9981 376l185 0c61.3332,0 104.666,11.3324 130.501,34.1667 25.6683,22.8343 38.4989,54.8349 38.4989,96.3339 0,29.8344 -7.49837,55.4992 -22.6647,76.8317 -15.1663,21.3361 -35.1667,35.5024 -59.835,42.3364 -16.0003,4.16615 -45.499,6.33227 -88.3337,6.33227l-183.166 0 0 -256.001z" /></glyph><glyph
         id="glyph95-5"
         horiz-adv-x="833"
         unicode="M"><path
           id="path97-9"
           d="M75.0013 0l0 715.999 141.999 0 169.332 -506.832c15.6681,-47.1669 27.0005,-82.4997 34.1667,-105.998 8.16976,26.0005 21.0004,64.3333 38.3364,114.832l172.332 497.998 126.833 0 0 -715.999 -90.9981 0 0 599 -209 -599 -85.3337 0 -206.668 610 0 -610 -90.9981 0z" /></glyph><glyph
         id="glyph99-4"
         horiz-adv-x="777"
         unicode="G"><path
           id="path101-9"
           d="M412 281.001l0 83.998 302.998 0 0 -265.333c-46.4991,-37.0007 -94.4999,-65.0011 -143.999,-83.6658 -49.4991,-18.6682 -100.334,-28.0005 -152.331,-28.0005 -70.3334,0 -134.168,15.0003 -191.668,45.1669 -57.3332,30.0005 -100.832,73.6656 -129.999,130.501 -29.3362,57.001 -44.0008,120.666 -44.0008,190.834 0,69.6655 14.4985,134.667 43.6651,195.166 29.1666,60.3332 71.0013,105.168 125.667,134.335 54.6688,29.3327 117.666,43.9972 189,43.9972 51.6688,0 98.5,-8.3323 140.335,-25.1665 41.8347,-16.8307 74.6656,-40.1668 98.3339,-69.9977 23.8308,-30.0005 41.8311,-69.1673 54.167,-117.334l-85.4997 -23.3326c-10.8341,36.3328 -24.1665,64.9976 -40.0007,85.998 -16.0003,20.8343 -38.6685,37.5024 -68.3334,50.0009 -29.5023,12.4985 -62.3333,18.8343 -98.5,18.8343 -43.1668,0 -80.4997,-6.66796 -112.168,-19.8343 -31.4988,-13.1663 -56.8314,-30.4988 -76.3335,-52.167 -19.3325,-21.4986 -34.3328,-45.1669 -45.0008,-70.8316 -18.1664,-44.5026 -27.3326,-92.4999 -27.3326,-144.335 0,-64.0011 11.0002,-117.5 32.8345,-160.667 22.0004,-43.0008 54.001,-74.9978 95.8321,-95.8321 42.0007,-20.8343 86.4998,-31.3327 133.667,-31.3327 41.0007,0 81.0014,8.00014 120.002,23.8308 38.9972,16.0003 68.4994,32.8345 88.6659,51.0009l0 134.168 -210 0z" /></glyph></font><style
       id="style103-09"
       type="text/css">
   
    @font-face { font-family:&quot;Arial&quot;;src:url(&quot;#FontID0&quot;) format(svg)}
    .fil3 {fill:#373435}
    .fil2 {fill:#544430}
    .fil1 {fill:#68944A}
    .fil0 {fill:#FEFEFE}
    .fnt1 {font-weight:normal;font-size:556.07;font-family:'Arial'}
    .fnt0 {font-weight:normal;font-size:2829.95;font-family:'Arial'}
   
  </style><font
       id="FontID0-3-1"
       horiz-adv-x="667"
       font-variant="normal"
       style="fill-rule:nonzero"
       font-style="normal"
       font-weight="400"><font-face
         font-family="Arial"
         id="font-face7-5-7" /><missing-glyph
         id="missing-glyph9-6-7"><path
           d="M0 0z"
           id="path11-2-1" /></missing-glyph><glyph
         unicode="U"
         horiz-adv-x="722"
         id="glyph13-9-1"><path
           d="M545.992 716.007l95.006 0 0 -413.509c0,-72.0053 -8.16444,-129.156 -24.3315,-171.489 -16.3289,-42.1709 -45.6597,-76.681 -87.9925,-103.17 -42.5126,-26.5075 -98.0092,-39.8331 -167.011,-39.8331 -66.8261,0 -121.657,11.4914 -164.17,34.6539 -42.6565,23.1805 -72.9944,56.5037 -91.1576,100.347 -18.1632,43.8254 -27.3347,103.656 -27.3347,179.492l0 413.509 95.006 0 0 -413.347c0,-62.1684 5.8266,-108.152 17.318,-137.501 11.5093,-29.4927 31.1831,-52.3315 59.345,-68.1569 28.0001,-16.0052 62.3303,-24.0078 102.829,-24.0078 69.3258,0 118.834,15.8433 148.327,47.3322 29.5107,31.6687 44.1671,92.3445 44.1671,182.333l0 413.347z"
           id="path15-1-5" /></glyph><glyph
         unicode="D"
         horiz-adv-x="722"
         id="glyph17-2-9"><path
           d="M77.0014 0l0 715.999 246.665 0c55.6653,0 98.1678,-3.33221 127.5,-10.1663 41.0007,-9.4984 76.0013,-26.6648 104.998,-51.3331 37.8346,-32.0006 66.0012,-72.6656 84.6693,-122.331 18.8307,-49.6687 28.1666,-106.5 28.1666,-170.335 0,-54.3331 -6.3358,-102.5 -19.0003,-144.501 -12.6681,-42.0007 -29.0005,-76.8317 -48.8348,-104.334 -20.0004,-27.4987 -41.665,-49.1634 -65.3333,-64.8315 -23.4986,-15.8342 -52.0009,-27.8344 -85.3337,-36.0006 -33.4988,-8.16622 -71.8317,-12.1663 -115.165,-12.1663l-258.333 0zm94.9981 84.0015l152.667 0c47.1669,0 84.1676,4.33223 110.998,13.1663 26.8344,8.83054 48.1669,21.1665 64.1672,37.1667 22.3361,22.4986 39.8346,52.8313 52.3331,90.832 12.502,38.0007 18.8343,84.0015 18.8343,138.169 0,74.9978 -12.3324,132.667 -36.8346,173 -24.4987,40.3329 -54.3331,67.3333 -89.4998,80.9979 -25.3326,9.8341 -66.1637,14.6681 -122.497,14.6681l-150.169 0 0 -547.999z"
           id="path19-7-7" /></glyph><glyph
         unicode="R"
         horiz-adv-x="722"
         id="glyph21-0-7"><path
           d="M79.0008 0l0 716.007 317.334 0c63.8229,0 112.324,-6.50997 145.503,-19.3321 33.1613,-12.8401 59.6687,-35.5171 79.4864,-68.013 19.8356,-32.4959 29.6725,-68.4986 29.6725,-107.828 0,-50.8389 -16.4907,-93.6753 -49.3283,-128.509 -32.8376,-34.8158 -83.4967,-56.8274 -152.175,-66.3226 25.1767,-11.9949 44.1671,-24.0078 57.1691,-35.661 27.6764,-25.3385 53.8421,-57.1691 78.3355,-95.3477l123.833 -194.993 -118.33 0 -94.6643 148.992c-27.4965,43.178 -50.3354,76.0156 -68.1749,98.8365 -18.0013,22.8389 -33.9885,38.6642 -48.1594,47.8357 -14.009,9.00966 -28.5036,15.3398 -43.178,19.0084 -10.6641,2.158 -28.1619,3.32692 -52.6552,3.32692l-109.662 0 0 -318 -95.006 0zm95.006 400.004l203.32 0c43.3399,0 77.0047,4.49584 101.336,13.4875 24.3315,8.84781 42.8363,23.1805 55.3348,43.0162 12.6603,19.6558 19.0084,40.984 19.0084,64.1646 0,33.8267 -12.1747,61.8267 -36.668,83.6585 -24.5113,21.8318 -63.1755,32.6757 -116.011,32.6757l-226.32 0 0 -237.003z"
           id="path23-9-6" /></glyph><glyph
         unicode="A"
         horiz-adv-x="667"
         id="glyph25-3-7"><path
           d="M-1.49826 0l274.666 715.999 104.164 0 291.5 -715.999 -107.832 0 -82.8319 217 -301.5 0 -77.6657 -217 -100.5 0zm205.997 294.002l244.001 0 -74.6656 198.498c-22.4986,60.3332 -39.4989,110.168 -51.3331,149.501 -9.8341,-46.6687 -23.0004,-92.4999 -39.4989,-137.833l-78.5032 -210.166z"
           id="path27-6-3" /></glyph><glyph
         unicode="-"
         horiz-adv-x="332"
         id="glyph29-0-6"><path
           d="M31.0033 215.009l0 87.9925 271.998 0 0 -87.9925 -271.998 0z"
           id="path31-6-5" /></glyph><glyph
         unicode="O"
         horiz-adv-x="777"
         id="glyph33-2-6"><path
           d="M47.9976 348.499c0,118.672 32.0104,211.664 95.8333,278.832 63.8409,67.1678 146.169,100.671 247.163,100.671 66.1787,0 125.668,-15.8433 178.844,-47.3322 52.9969,-31.5068 93.4954,-75.4941 121.334,-131.998 27.8202,-56.3418 41.8293,-120.345 41.8293,-191.846 0,-72.4909 -14.6744,-137.501 -44.0053,-194.652 -29.3308,-57.3489 -70.8364,-100.671 -124.499,-130.002 -53.8242,-29.5107 -111.838,-44.1671 -173.989,-44.1671 -67.5095,0 -127.682,16.3289 -180.841,48.8248 -52.9969,32.4959 -93.3336,76.8428 -120.668,133.167 -27.3347,56.162 -41.002,115.669 -41.002,178.503zm98.0092 -1.67245c0,-86.1582 23.1626,-153.991 69.4877,-203.5 46.3431,-49.4902 104.501,-74.3252 174.51,-74.3252 71.322,0 129.822,24.9969 176.003,74.9906 45.9834,50.0117 68.9841,121.01 68.9841,213.013 0,58.1581 -9.81891,108.997 -29.4927,152.319 -19.6738,43.3399 -48.5011,77.0047 -86.3381,100.851 -37.9988,23.8279 -80.4935,35.8228 -127.664,35.8228 -67.006,0 -124.661,-23.0007 -173,-69.0021 -48.3392,-46.0014 -72.4909,-122.664 -72.4909,-230.169z"
           id="path35-6-3" /></glyph><glyph
         unicode="Ô"
         horiz-adv-x="777"
         id="glyph37-1-9"><path
           d="M47.9976 348.499c0,118.672 32.0104,211.664 95.8333,278.832 63.8409,67.1678 146.169,100.671 247.163,100.671 66.1787,0 125.668,-15.8433 178.844,-47.3322 52.9969,-31.5068 93.4954,-75.4941 121.334,-131.998 27.8202,-56.3418 41.8293,-120.345 41.8293,-191.846 0,-72.4909 -14.6744,-137.501 -44.0053,-194.652 -29.3308,-57.3489 -70.8364,-100.671 -124.499,-130.002 -53.8242,-29.5107 -111.838,-44.1671 -173.989,-44.1671 -67.5095,0 -127.682,16.3289 -180.841,48.8248 -52.9969,32.4959 -93.3336,76.8428 -120.668,133.167 -27.3347,56.162 -41.002,115.669 -41.002,178.503zm98.0092 -1.67245c0,-86.1582 23.1626,-153.991 69.4877,-203.5 46.3431,-49.4902 104.501,-74.3252 174.51,-74.3252 71.322,0 129.822,24.9969 176.003,74.9906 45.9834,50.0117 68.9841,121.01 68.9841,213.013 0,58.1581 -9.81891,108.997 -29.4927,152.319 -19.6738,43.3399 -48.5011,77.0047 -86.3381,100.851 -37.9988,23.8279 -80.4935,35.8228 -127.664,35.8228 -67.006,0 -124.661,-23.0007 -173,-69.0021 -48.3392,-46.0014 -72.4909,-122.664 -72.4909,-230.169zm243.998 496.179l-54.5075 -83.0111 -100.005 0 104.501 136.997 93.0099 0 111.497 -136.997 -100.005 0 -54.4895 83.0111z"
           id="path39-8-4" /></glyph><glyph
         unicode="L"
         horiz-adv-x="556"
         id="glyph41-7-8"><path
           d="M72.9944 0l0 716.007 95.006 0 0 -632.007 352.006 0 0 -84.0002 -447.012 0z"
           id="path43-9-1" /></glyph><glyph
         unicode="Ã"
         horiz-adv-x="667"
         id="glyph45-2-2"><path
           d="M-1.49262 0l274.66 716.007 104.16 0 291.51 -716.007 -107.828 0 -82.8493 217.005 -301.491 0 -77.6701 -217.005 -100.491 0zm205.999 293.992l243.998 0 -74.6669 198.5c-22.4972,60.3341 -39.5094,110.166 -51.3425,149.514 -9.83689,-46.6668 -23.0007,-92.5063 -39.4914,-137.842l-78.4973 -210.171zm-41.5056 465.013c-0.341684,33.503 8.99167,60.1543 27.8382,80.1698 18.4869,19.8176 42.3328,29.8164 71.322,29.8164 20.1773,0 47.6739,-8.48814 82.3457,-25.6622 19.1523,-9.49521 34.4921,-14.3327 45.8216,-14.3327 10.5023,0 18.5049,2.84137 24.0078,8.50612 5.5029,5.5029 9.33336,16.8324 11.6712,33.503l62.9957 0c-1.00707,-37.0097 -10.3404,-64.6681 -28.0001,-83.173 -17.6776,-18.5049 -39.995,-27.8382 -67.3297,-27.8382 -20.3392,0 -47.3322,9.17151 -80.6733,27.3347 -21.8318,11.833 -37.837,17.6776 -47.9976,17.6776 -11.0058,0 -19.9975,-3.84844 -26.6693,-11.6712 -7.17536,-7.66091 -10.6641,-19.1702 -10.3404,-34.3302l-64.9918 0z"
           id="path47-0-9" /></glyph><glyph
         unicode="Z"
         horiz-adv-x="610"
         id="glyph49-2-3"><path
           d="M19.9975 0l0 87.507 366.662 458.989c26.3456,32.3341 51.0008,60.8377 74.505,85.5108l-399.158 0 0 84.0002 511.986 0 0 -84.0002 -402.162 -496.682 -42.9982 -51.3245 457.173 0 0 -84.0002 -566.008 0z"
           id="path51-3-9" /></glyph><glyph
         unicode="I"
         horiz-adv-x="277"
         id="glyph53-7-0"><path
           d="M92.9919 0l0 716.007 95.006 0 0 -716.007 -95.006 0z"
           id="path55-5-8" /></glyph><glyph
         unicode="C"
         horiz-adv-x="722"
         id="glyph57-9-8"><path
           d="M586.994 251.173l95.006 -24.0078c-19.8356,-77.8319 -55.4966,-136.997 -107.001,-177.837 -51.5043,-40.8222 -114.5,-61.3232 -189.005,-61.3232 -76.9867,0 -139.659,15.6635 -187.998,47.1703 -48.3213,31.327 -84.9893,76.8249 -110.166,136.332 -25.1587,59.6508 -37.837,123.492 -37.837,191.828 0,74.505 14.1709,139.497 42.6745,194.993 28.5036,55.4966 69.0021,97.6676 121.495,126.513 52.5114,28.8273 110.328,43.16 173.341,43.16 71.6636,0 131.836,-18.1632 180.499,-54.6694 48.8248,-36.5062 82.8313,-87.6688 102.002,-153.668l-93.0099 -21.9936c-16.4907,51.9899 -40.6603,89.9887 -72.1672,113.655 -31.4888,23.8459 -71.1601,35.679 -118.996,35.679 -54.8312,0 -100.833,-13.1638 -137.663,-39.5094 -36.8299,-26.3276 -62.8338,-61.8267 -77.6701,-106.156 -14.9981,-44.5088 -22.4972,-90.3483 -22.4972,-137.501 0,-60.8377 8.82982,-114.014 26.4895,-159.332 17.6776,-45.4979 45.1742,-79.3425 82.5076,-101.84 37.3334,-22.4972 77.6701,-33.6648 121.172,-33.6648 52.9969,0 97.6676,15.3398 134.336,45.8396 36.668,30.6616 61.4851,75.9976 74.487,136.332z"
           id="path59-2-5" /></glyph><glyph
         unicode="T"
         horiz-adv-x="610"
         id="glyph61-2-0"><path
           d="M258.996 0l0 632.007 -235.995 0 0 84.0002 566.997 0 0 -84.0002 -235.995 0 0 -632.007 -95.006 0z"
           id="path63-8-9" /></glyph><glyph
         unicode="N"
         horiz-adv-x="722"
         id="glyph65-9-6"><path
           d="M75.9976 0l0 716.007 97.3439 0 375.654 -562.016 0 562.016 90.9957 0 0 -716.007 -97.3259 0 -375.672 561.998 0 -561.998 -90.9957 0z"
           id="path67-7-3" /></glyph><glyph
         unicode="Ó"
         horiz-adv-x="777"
         id="glyph69-3-8"><path
           d="M47.9976 348.499c0,118.672 32.0104,211.664 95.8333,278.832 63.8409,67.1678 146.169,100.671 247.163,100.671 66.1787,0 125.668,-15.8433 178.844,-47.3322 52.9969,-31.5068 93.4954,-75.4941 121.334,-131.998 27.8202,-56.3418 41.8293,-120.345 41.8293,-191.846 0,-72.4909 -14.6744,-137.501 -44.0053,-194.652 -29.3308,-57.3489 -70.8364,-100.671 -124.499,-130.002 -53.8242,-29.5107 -111.838,-44.1671 -173.989,-44.1671 -67.5095,0 -127.682,16.3289 -180.841,48.8248 -52.9969,32.4959 -93.3336,76.8428 -120.668,133.167 -27.3347,56.162 -41.002,115.669 -41.002,178.503zm98.0092 -1.67245c0,-86.1582 23.1626,-153.991 69.4877,-203.5 46.3431,-49.4902 104.501,-74.3252 174.51,-74.3252 71.322,0 129.822,24.9969 176.003,74.9906 45.9834,50.0117 68.9841,121.01 68.9841,213.013 0,58.1581 -9.81891,108.997 -29.4927,152.319 -19.6738,43.3399 -48.5011,77.0047 -86.3381,100.851 -37.9988,23.8279 -80.4935,35.8228 -127.664,35.8228 -67.006,0 -124.661,-23.0007 -173,-69.0021 -48.3392,-46.0014 -72.4909,-122.664 -72.4909,-230.169zm171.993 413.167l64.0027 136.997 115.993 0 -107.001 -136.997 -72.9944 0z"
           id="path71-6-5" /></glyph><glyph
         unicode="V"
         horiz-adv-x="667"
         id="glyph73-1-6"><path
           d="M281.008 0l-276.674 716.007 102.667 0 186.002 -520.348c14.8363,-41.6674 27.4965,-80.6553 37.4953,-117.162 11.0058,39.1677 23.8279,78.1736 38.5023,117.162l192.997 520.348 96.6605 0 -279.156 -716.007 -98.4948 0z"
           id="path75-2-1" /></glyph><glyph
         unicode="E"
         horiz-adv-x="667"
         id="glyph77-9-1"><path
           d="M79.0014 0l0 715.999 516.999 0 0 -83.998 -422 0 0 -220 395 0 0 -84.0015 -395 0 0 -243.997 439.001 0 0 -84.0015 -533.999 0z"
           id="path79-3-5" /></glyph><glyph
         unicode="S"
         horiz-adv-x="667"
         id="glyph81-1-9"><path
           d="M46.0014 230.007l88.9996 7.98461c4.17214,-35.9847 13.991,-65.4954 29.4927,-88.6579 15.5016,-23.0007 39.5094,-41.6674 72.0053,-56.0001 32.4959,-14.1709 69.164,-21.3283 109.842,-21.3283 36.1645,0 67.995,5.32307 95.6534,16.167 27.6764,10.826 48.1774,25.6622 61.6649,44.4908 13.5055,18.8286 20.3392,39.3296 20.3392,61.3412 0,22.3353 -6.49199,41.8293 -19.4939,58.6617 -13.002,16.6706 -34.51,30.6616 -64.5063,42.1709 -19.1702,7.33721 -61.6649,18.9904 -127.502,34.8337 -65.837,15.8253 -111.838,30.6616 -138.166,44.6706 -34.1684,17.9833 -59.4889,40.3187 -76.1595,66.8261 -16.8324,26.5075 -25.1767,56.3238 -25.1767,89.1614 0,36.3443 10.3404,70.171 30.8414,101.498 20.501,31.5068 50.3354,55.3348 89.8268,71.6816 39.3296,16.3289 83.173,24.4933 131.332,24.4933 52.9969,0 99.8435,-8.50612 140.342,-25.6622 40.4985,-17.0122 71.6636,-42.1709 93.4954,-75.5121 21.8318,-33.1613 33.503,-70.8364 35.1754,-112.828l-91.0137 -6.99552c-4.81954,45.1562 -21.3283,79.3245 -49.4902,102.325 -28.1619,23.1626 -69.8293,34.6719 -124.84,34.6719 -57.3309,0 -99.1602,-10.5023 -125.326,-31.5068 -26.1658,-20.9866 -39.3296,-46.3251 -39.3296,-75.9976 0,-25.6622 9.33336,-46.8286 27.8202,-63.4992 18.343,-16.4907 65.837,-33.6648 142.842,-51.0008 77.0047,-17.4978 129.822,-32.6578 158.505,-45.6597 41.4876,-19.1702 72.329,-43.3399 92.1647,-72.8326 19.8356,-29.3308 29.6545,-63.1755 29.6545,-101.498 0,-38.1786 -10.826,-73.8396 -32.6578,-107.504 -21.8318,-33.6648 -52.9969,-59.8306 -93.8371,-78.4973 -40.8402,-18.6667 -86.6618,-28.0001 -137.824,-28.0001 -64.6681,0 -118.834,9.49521 -162.516,28.3238 -43.8254,18.8465 -77.9938,47.1703 -102.829,85.1691 -24.9969,37.837 -37.9988,80.6733 -39.3296,128.509z"
           id="path83-9-8" /></glyph><glyph
         unicode=" "
         horiz-adv-x="277"
         id="glyph85-4-4" /><glyph
         unicode="Ç"
         horiz-adv-x="722"
         id="glyph87-7-8"><path
           d="M586.994 251.173l95.006 -24.0078c-19.8356,-77.8319 -55.4966,-136.997 -107.001,-177.837 -51.5043,-40.8222 -114.5,-61.3232 -189.005,-61.3232 -76.9867,0 -139.659,15.6635 -187.998,47.1703 -48.3213,31.327 -84.9893,76.8249 -110.166,136.332 -25.1587,59.6508 -37.837,123.492 -37.837,191.828 0,74.505 14.1709,139.497 42.6745,194.993 28.5036,55.4966 69.0021,97.6676 121.495,126.513 52.5114,28.8273 110.328,43.16 173.341,43.16 71.6636,0 131.836,-18.1632 180.499,-54.6694 48.8248,-36.5062 82.8313,-87.6688 102.002,-153.668l-93.0099 -21.9936c-16.4907,51.9899 -40.6603,89.9887 -72.1672,113.655 -31.4888,23.8459 -71.1601,35.679 -118.996,35.679 -54.8312,0 -100.833,-13.1638 -137.663,-39.5094 -36.8299,-26.3276 -62.8338,-61.8267 -77.6701,-106.156 -14.9981,-44.5088 -22.4972,-90.3483 -22.4972,-137.501 0,-60.8377 8.82982,-114.014 26.4895,-159.332 17.6776,-45.4979 45.1742,-79.3425 82.5076,-101.84 37.3334,-22.4972 77.6701,-33.6648 121.172,-33.6648 52.9969,0 97.6676,15.3398 134.336,45.8396 36.668,30.6616 61.4851,75.9976 74.487,136.332zm-277.321 -337.17l25.3206 85.9964 65.0098 0 -16.167 -52.0078c27.8382,-3.32692 48.8248,-11.833 62.9957,-25.6622 14.1709,-13.6673 21.1664,-28.9892 21.1664,-45.8216 0,-24.3495 -11.833,-45.8396 -35.4991,-64.5063 -23.5042,-18.6667 -59.1652,-28.0001 -106.659,-28.0001 -26.8491,0 -50.5152,0 -70.8364,0l4.99937 62.0066c21.1664,-0.683367 36.4882,-1.00707 46.5049,-1.00707 30.8235,0 52.6552,4.17214 65.1537,12.6603 9.51319,6.50997 14.3327,14.3327 14.3327,23.8459 0,5.8266 -1.8343,10.9878 -5.66475,15.4837 -3.6686,4.51382 -10.5023,8.50612 -20.501,11.6712 -10.1606,3.16507 -26.8312,4.99937 -50.1556,5.34105z"
           id="path89-8-1" /></glyph><glyph
         unicode="P"
         horiz-adv-x="667"
         id="glyph91-4-0"><path
           d="M77.0014 0l0 715.999 270.333 0c47.4991,0 83.8319,-2.3322 108.998,-6.83051 35.1667,-5.83403 64.6655,-17.0003 88.4998,-33.3363 23.8343,-16.4985 43.0008,-39.4989 57.4992,-68.9977 14.502,-29.5023 21.6682,-62.0011 21.6682,-97.5 0,-60.6689 -19.3325,-112.168 -58.1671,-154.169 -38.665,-42.1668 -108.832,-63.1637 -210.166,-63.1637l-183.668 0 0 -292.002 -94.9981 0zm94.9981 376l185 0c61.3332,0 104.666,11.3324 130.501,34.1667 25.6683,22.8343 38.4989,54.8349 38.4989,96.3339 0,29.8344 -7.49837,55.4992 -22.6647,76.8317 -15.1663,21.3361 -35.1667,35.5024 -59.835,42.3364 -16.0003,4.16615 -45.499,6.33227 -88.3337,6.33227l-183.166 0 0 -256.001z"
           id="path93-5-3" /></glyph><glyph
         unicode="M"
         horiz-adv-x="833"
         id="glyph95-0-0"><path
           d="M75.0013 0l0 715.999 141.999 0 169.332 -506.832c15.6681,-47.1669 27.0005,-82.4997 34.1667,-105.998 8.16976,26.0005 21.0004,64.3333 38.3364,114.832l172.332 497.998 126.833 0 0 -715.999 -90.9981 0 0 599 -209 -599 -85.3337 0 -206.668 610 0 -610 -90.9981 0z"
           id="path97-3-4" /></glyph><glyph
         unicode="G"
         horiz-adv-x="777"
         id="glyph99-6-4"><path
           d="M412 281.001l0 83.998 302.998 0 0 -265.333c-46.4991,-37.0007 -94.4999,-65.0011 -143.999,-83.6658 -49.4991,-18.6682 -100.334,-28.0005 -152.331,-28.0005 -70.3334,0 -134.168,15.0003 -191.668,45.1669 -57.3332,30.0005 -100.832,73.6656 -129.999,130.501 -29.3362,57.001 -44.0008,120.666 -44.0008,190.834 0,69.6655 14.4985,134.667 43.6651,195.166 29.1666,60.3332 71.0013,105.168 125.667,134.335 54.6688,29.3327 117.666,43.9972 189,43.9972 51.6688,0 98.5,-8.3323 140.335,-25.1665 41.8347,-16.8307 74.6656,-40.1668 98.3339,-69.9977 23.8308,-30.0005 41.8311,-69.1673 54.167,-117.334l-85.4997 -23.3326c-10.8341,36.3328 -24.1665,64.9976 -40.0007,85.998 -16.0003,20.8343 -38.6685,37.5024 -68.3334,50.0009 -29.5023,12.4985 -62.3333,18.8343 -98.5,18.8343 -43.1668,0 -80.4997,-6.66796 -112.168,-19.8343 -31.4988,-13.1663 -56.8314,-30.4988 -76.3335,-52.167 -19.3325,-21.4986 -34.3328,-45.1669 -45.0008,-70.8316 -18.1664,-44.5026 -27.3326,-92.4999 -27.3326,-144.335 0,-64.0011 11.0002,-117.5 32.8345,-160.667 22.0004,-43.0008 54.001,-74.9978 95.8321,-95.8321 42.0007,-20.8343 86.4998,-31.3327 133.667,-31.3327 41.0007,0 81.0014,8.00014 120.002,23.8308 38.9972,16.0003 68.4994,32.8345 88.6659,51.0009l0 134.168 -210 0z"
           id="path101-1-4" /></glyph></font><style
       type="text/css"
       id="style103-0-4">
   
    @font-face { font-family:&quot;Arial&quot;;src:url(&quot;#FontID0&quot;) format(svg)}
    .fil3 {fill:#373435}
    .fil2 {fill:#544430}
    .fil1 {fill:#68944A}
    .fil0 {fill:#FEFEFE}
    .fnt1 {font-weight:normal;font-size:556.07;font-family:'Arial'}
    .fnt0 {font-weight:normal;font-size:2829.95;font-family:'Arial'}
   
  </style><font
       style="fill-rule:nonzero"
       font-weight="400"
       font-style="normal"
       font-variant="normal"
       horiz-adv-x="667"
       id="FontID0-9"><font-face
         id="font-face7-7"
         font-family="Arial" /><missing-glyph
         id="missing-glyph9-5"><path
           id="path11-3"
           d="M0 0z" /></missing-glyph><glyph
         id="glyph13-8"
         horiz-adv-x="722"
         unicode="U"><path
           id="path15-8"
           d="M545.992 716.007l95.006 0 0 -413.509c0,-72.0053 -8.16444,-129.156 -24.3315,-171.489 -16.3289,-42.1709 -45.6597,-76.681 -87.9925,-103.17 -42.5126,-26.5075 -98.0092,-39.8331 -167.011,-39.8331 -66.8261,0 -121.657,11.4914 -164.17,34.6539 -42.6565,23.1805 -72.9944,56.5037 -91.1576,100.347 -18.1632,43.8254 -27.3347,103.656 -27.3347,179.492l0 413.509 95.006 0 0 -413.347c0,-62.1684 5.8266,-108.152 17.318,-137.501 11.5093,-29.4927 31.1831,-52.3315 59.345,-68.1569 28.0001,-16.0052 62.3303,-24.0078 102.829,-24.0078 69.3258,0 118.834,15.8433 148.327,47.3322 29.5107,31.6687 44.1671,92.3445 44.1671,182.333l0 413.347z" /></glyph><glyph
         id="glyph17-3"
         horiz-adv-x="722"
         unicode="D"><path
           id="path19-1"
           d="M77.0014 0l0 715.999 246.665 0c55.6653,0 98.1678,-3.33221 127.5,-10.1663 41.0007,-9.4984 76.0013,-26.6648 104.998,-51.3331 37.8346,-32.0006 66.0012,-72.6656 84.6693,-122.331 18.8307,-49.6687 28.1666,-106.5 28.1666,-170.335 0,-54.3331 -6.3358,-102.5 -19.0003,-144.501 -12.6681,-42.0007 -29.0005,-76.8317 -48.8348,-104.334 -20.0004,-27.4987 -41.665,-49.1634 -65.3333,-64.8315 -23.4986,-15.8342 -52.0009,-27.8344 -85.3337,-36.0006 -33.4988,-8.16622 -71.8317,-12.1663 -115.165,-12.1663l-258.333 0zm94.9981 84.0015l152.667 0c47.1669,0 84.1676,4.33223 110.998,13.1663 26.8344,8.83054 48.1669,21.1665 64.1672,37.1667 22.3361,22.4986 39.8346,52.8313 52.3331,90.832 12.502,38.0007 18.8343,84.0015 18.8343,138.169 0,74.9978 -12.3324,132.667 -36.8346,173 -24.4987,40.3329 -54.3331,67.3333 -89.4998,80.9979 -25.3326,9.8341 -66.1637,14.6681 -122.497,14.6681l-150.169 0 0 -547.999z" /></glyph><glyph
         id="glyph21-8"
         horiz-adv-x="722"
         unicode="R"><path
           id="path23-96"
           d="M79.0008 0l0 716.007 317.334 0c63.8229,0 112.324,-6.50997 145.503,-19.3321 33.1613,-12.8401 59.6687,-35.5171 79.4864,-68.013 19.8356,-32.4959 29.6725,-68.4986 29.6725,-107.828 0,-50.8389 -16.4907,-93.6753 -49.3283,-128.509 -32.8376,-34.8158 -83.4967,-56.8274 -152.175,-66.3226 25.1767,-11.9949 44.1671,-24.0078 57.1691,-35.661 27.6764,-25.3385 53.8421,-57.1691 78.3355,-95.3477l123.833 -194.993 -118.33 0 -94.6643 148.992c-27.4965,43.178 -50.3354,76.0156 -68.1749,98.8365 -18.0013,22.8389 -33.9885,38.6642 -48.1594,47.8357 -14.009,9.00966 -28.5036,15.3398 -43.178,19.0084 -10.6641,2.158 -28.1619,3.32692 -52.6552,3.32692l-109.662 0 0 -318 -95.006 0zm95.006 400.004l203.32 0c43.3399,0 77.0047,4.49584 101.336,13.4875 24.3315,8.84781 42.8363,23.1805 55.3348,43.0162 12.6603,19.6558 19.0084,40.984 19.0084,64.1646 0,33.8267 -12.1747,61.8267 -36.668,83.6585 -24.5113,21.8318 -63.1755,32.6757 -116.011,32.6757l-226.32 0 0 -237.003z" /></glyph><glyph
         id="glyph25-43"
         horiz-adv-x="667"
         unicode="A"><path
           id="path27-33"
           d="M-1.49826 0l274.666 715.999 104.164 0 291.5 -715.999 -107.832 0 -82.8319 217 -301.5 0 -77.6657 -217 -100.5 0zm205.997 294.002l244.001 0 -74.6656 198.498c-22.4986,60.3332 -39.4989,110.168 -51.3331,149.501 -9.8341,-46.6687 -23.0004,-92.4999 -39.4989,-137.833l-78.5032 -210.166z" /></glyph><glyph
         id="glyph29-8"
         horiz-adv-x="332"
         unicode="-"><path
           id="path31-60"
           d="M31.0033 215.009l0 87.9925 271.998 0 0 -87.9925 -271.998 0z" /></glyph><glyph
         id="glyph33-4"
         horiz-adv-x="777"
         unicode="O"><path
           id="path35-88"
           d="M47.9976 348.499c0,118.672 32.0104,211.664 95.8333,278.832 63.8409,67.1678 146.169,100.671 247.163,100.671 66.1787,0 125.668,-15.8433 178.844,-47.3322 52.9969,-31.5068 93.4954,-75.4941 121.334,-131.998 27.8202,-56.3418 41.8293,-120.345 41.8293,-191.846 0,-72.4909 -14.6744,-137.501 -44.0053,-194.652 -29.3308,-57.3489 -70.8364,-100.671 -124.499,-130.002 -53.8242,-29.5107 -111.838,-44.1671 -173.989,-44.1671 -67.5095,0 -127.682,16.3289 -180.841,48.8248 -52.9969,32.4959 -93.3336,76.8428 -120.668,133.167 -27.3347,56.162 -41.002,115.669 -41.002,178.503zm98.0092 -1.67245c0,-86.1582 23.1626,-153.991 69.4877,-203.5 46.3431,-49.4902 104.501,-74.3252 174.51,-74.3252 71.322,0 129.822,24.9969 176.003,74.9906 45.9834,50.0117 68.9841,121.01 68.9841,213.013 0,58.1581 -9.81891,108.997 -29.4927,152.319 -19.6738,43.3399 -48.5011,77.0047 -86.3381,100.851 -37.9988,23.8279 -80.4935,35.8228 -127.664,35.8228 -67.006,0 -124.661,-23.0007 -173,-69.0021 -48.3392,-46.0014 -72.4909,-122.664 -72.4909,-230.169z" /></glyph><glyph
         id="glyph37-89"
         horiz-adv-x="777"
         unicode="Ô"><path
           id="path39-77"
           d="M47.9976 348.499c0,118.672 32.0104,211.664 95.8333,278.832 63.8409,67.1678 146.169,100.671 247.163,100.671 66.1787,0 125.668,-15.8433 178.844,-47.3322 52.9969,-31.5068 93.4954,-75.4941 121.334,-131.998 27.8202,-56.3418 41.8293,-120.345 41.8293,-191.846 0,-72.4909 -14.6744,-137.501 -44.0053,-194.652 -29.3308,-57.3489 -70.8364,-100.671 -124.499,-130.002 -53.8242,-29.5107 -111.838,-44.1671 -173.989,-44.1671 -67.5095,0 -127.682,16.3289 -180.841,48.8248 -52.9969,32.4959 -93.3336,76.8428 -120.668,133.167 -27.3347,56.162 -41.002,115.669 -41.002,178.503zm98.0092 -1.67245c0,-86.1582 23.1626,-153.991 69.4877,-203.5 46.3431,-49.4902 104.501,-74.3252 174.51,-74.3252 71.322,0 129.822,24.9969 176.003,74.9906 45.9834,50.0117 68.9841,121.01 68.9841,213.013 0,58.1581 -9.81891,108.997 -29.4927,152.319 -19.6738,43.3399 -48.5011,77.0047 -86.3381,100.851 -37.9988,23.8279 -80.4935,35.8228 -127.664,35.8228 -67.006,0 -124.661,-23.0007 -173,-69.0021 -48.3392,-46.0014 -72.4909,-122.664 -72.4909,-230.169zm243.998 496.179l-54.5075 -83.0111 -100.005 0 104.501 136.997 93.0099 0 111.497 -136.997 -100.005 0 -54.4895 83.0111z" /></glyph><glyph
         id="glyph41-6"
         horiz-adv-x="556"
         unicode="L"><path
           id="path43-43"
           d="M72.9944 0l0 716.007 95.006 0 0 -632.007 352.006 0 0 -84.0002 -447.012 0z" /></glyph><glyph
         id="glyph45-03"
         horiz-adv-x="667"
         unicode="Ã"><path
           id="path47-09"
           d="M-1.49262 0l274.66 716.007 104.16 0 291.51 -716.007 -107.828 0 -82.8493 217.005 -301.491 0 -77.6701 -217.005 -100.491 0zm205.999 293.992l243.998 0 -74.6669 198.5c-22.4972,60.3341 -39.5094,110.166 -51.3425,149.514 -9.83689,-46.6668 -23.0007,-92.5063 -39.4914,-137.842l-78.4973 -210.171zm-41.5056 465.013c-0.341684,33.503 8.99167,60.1543 27.8382,80.1698 18.4869,19.8176 42.3328,29.8164 71.322,29.8164 20.1773,0 47.6739,-8.48814 82.3457,-25.6622 19.1523,-9.49521 34.4921,-14.3327 45.8216,-14.3327 10.5023,0 18.5049,2.84137 24.0078,8.50612 5.5029,5.5029 9.33336,16.8324 11.6712,33.503l62.9957 0c-1.00707,-37.0097 -10.3404,-64.6681 -28.0001,-83.173 -17.6776,-18.5049 -39.995,-27.8382 -67.3297,-27.8382 -20.3392,0 -47.3322,9.17151 -80.6733,27.3347 -21.8318,11.833 -37.837,17.6776 -47.9976,17.6776 -11.0058,0 -19.9975,-3.84844 -26.6693,-11.6712 -7.17536,-7.66091 -10.6641,-19.1702 -10.3404,-34.3302l-64.9918 0z" /></glyph><glyph
         id="glyph49-25"
         horiz-adv-x="610"
         unicode="Z"><path
           id="path51-4"
           d="M19.9975 0l0 87.507 366.662 458.989c26.3456,32.3341 51.0008,60.8377 74.505,85.5108l-399.158 0 0 84.0002 511.986 0 0 -84.0002 -402.162 -496.682 -42.9982 -51.3245 457.173 0 0 -84.0002 -566.008 0z" /></glyph><glyph
         id="glyph53-0"
         horiz-adv-x="277"
         unicode="I"><path
           id="path55-59"
           d="M92.9919 0l0 716.007 95.006 0 0 -716.007 -95.006 0z" /></glyph><glyph
         id="glyph57-4"
         horiz-adv-x="722"
         unicode="C"><path
           id="path59-69"
           d="M586.994 251.173l95.006 -24.0078c-19.8356,-77.8319 -55.4966,-136.997 -107.001,-177.837 -51.5043,-40.8222 -114.5,-61.3232 -189.005,-61.3232 -76.9867,0 -139.659,15.6635 -187.998,47.1703 -48.3213,31.327 -84.9893,76.8249 -110.166,136.332 -25.1587,59.6508 -37.837,123.492 -37.837,191.828 0,74.505 14.1709,139.497 42.6745,194.993 28.5036,55.4966 69.0021,97.6676 121.495,126.513 52.5114,28.8273 110.328,43.16 173.341,43.16 71.6636,0 131.836,-18.1632 180.499,-54.6694 48.8248,-36.5062 82.8313,-87.6688 102.002,-153.668l-93.0099 -21.9936c-16.4907,51.9899 -40.6603,89.9887 -72.1672,113.655 -31.4888,23.8459 -71.1601,35.679 -118.996,35.679 -54.8312,0 -100.833,-13.1638 -137.663,-39.5094 -36.8299,-26.3276 -62.8338,-61.8267 -77.6701,-106.156 -14.9981,-44.5088 -22.4972,-90.3483 -22.4972,-137.501 0,-60.8377 8.82982,-114.014 26.4895,-159.332 17.6776,-45.4979 45.1742,-79.3425 82.5076,-101.84 37.3334,-22.4972 77.6701,-33.6648 121.172,-33.6648 52.9969,0 97.6676,15.3398 134.336,45.8396 36.668,30.6616 61.4851,75.9976 74.487,136.332z" /></glyph><glyph
         id="glyph61-22"
         horiz-adv-x="610"
         unicode="T"><path
           id="path63-4"
           d="M258.996 0l0 632.007 -235.995 0 0 84.0002 566.997 0 0 -84.0002 -235.995 0 0 -632.007 -95.006 0z" /></glyph><glyph
         id="glyph65-7"
         horiz-adv-x="722"
         unicode="N"><path
           id="path67-75"
           d="M75.9976 0l0 716.007 97.3439 0 375.654 -562.016 0 562.016 90.9957 0 0 -716.007 -97.3259 0 -375.672 561.998 0 -561.998 -90.9957 0z" /></glyph><glyph
         id="glyph69-48"
         horiz-adv-x="777"
         unicode="Ó"><path
           id="path71-1"
           d="M47.9976 348.499c0,118.672 32.0104,211.664 95.8333,278.832 63.8409,67.1678 146.169,100.671 247.163,100.671 66.1787,0 125.668,-15.8433 178.844,-47.3322 52.9969,-31.5068 93.4954,-75.4941 121.334,-131.998 27.8202,-56.3418 41.8293,-120.345 41.8293,-191.846 0,-72.4909 -14.6744,-137.501 -44.0053,-194.652 -29.3308,-57.3489 -70.8364,-100.671 -124.499,-130.002 -53.8242,-29.5107 -111.838,-44.1671 -173.989,-44.1671 -67.5095,0 -127.682,16.3289 -180.841,48.8248 -52.9969,32.4959 -93.3336,76.8428 -120.668,133.167 -27.3347,56.162 -41.002,115.669 -41.002,178.503zm98.0092 -1.67245c0,-86.1582 23.1626,-153.991 69.4877,-203.5 46.3431,-49.4902 104.501,-74.3252 174.51,-74.3252 71.322,0 129.822,24.9969 176.003,74.9906 45.9834,50.0117 68.9841,121.01 68.9841,213.013 0,58.1581 -9.81891,108.997 -29.4927,152.319 -19.6738,43.3399 -48.5011,77.0047 -86.3381,100.851 -37.9988,23.8279 -80.4935,35.8228 -127.664,35.8228 -67.006,0 -124.661,-23.0007 -173,-69.0021 -48.3392,-46.0014 -72.4909,-122.664 -72.4909,-230.169zm171.993 413.167l64.0027 136.997 115.993 0 -107.001 -136.997 -72.9944 0z" /></glyph><glyph
         id="glyph73-2"
         horiz-adv-x="667"
         unicode="V"><path
           id="path75-8"
           d="M281.008 0l-276.674 716.007 102.667 0 186.002 -520.348c14.8363,-41.6674 27.4965,-80.6553 37.4953,-117.162 11.0058,39.1677 23.8279,78.1736 38.5023,117.162l192.997 520.348 96.6605 0 -279.156 -716.007 -98.4948 0z" /></glyph><glyph
         id="glyph77-93"
         horiz-adv-x="667"
         unicode="E"><path
           id="path79-6"
           d="M79.0014 0l0 715.999 516.999 0 0 -83.998 -422 0 0 -220 395 0 0 -84.0015 -395 0 0 -243.997 439.001 0 0 -84.0015 -533.999 0z" /></glyph><glyph
         id="glyph81-8"
         horiz-adv-x="667"
         unicode="S"><path
           id="path83-0"
           d="M46.0014 230.007l88.9996 7.98461c4.17214,-35.9847 13.991,-65.4954 29.4927,-88.6579 15.5016,-23.0007 39.5094,-41.6674 72.0053,-56.0001 32.4959,-14.1709 69.164,-21.3283 109.842,-21.3283 36.1645,0 67.995,5.32307 95.6534,16.167 27.6764,10.826 48.1774,25.6622 61.6649,44.4908 13.5055,18.8286 20.3392,39.3296 20.3392,61.3412 0,22.3353 -6.49199,41.8293 -19.4939,58.6617 -13.002,16.6706 -34.51,30.6616 -64.5063,42.1709 -19.1702,7.33721 -61.6649,18.9904 -127.502,34.8337 -65.837,15.8253 -111.838,30.6616 -138.166,44.6706 -34.1684,17.9833 -59.4889,40.3187 -76.1595,66.8261 -16.8324,26.5075 -25.1767,56.3238 -25.1767,89.1614 0,36.3443 10.3404,70.171 30.8414,101.498 20.501,31.5068 50.3354,55.3348 89.8268,71.6816 39.3296,16.3289 83.173,24.4933 131.332,24.4933 52.9969,0 99.8435,-8.50612 140.342,-25.6622 40.4985,-17.0122 71.6636,-42.1709 93.4954,-75.5121 21.8318,-33.1613 33.503,-70.8364 35.1754,-112.828l-91.0137 -6.99552c-4.81954,45.1562 -21.3283,79.3245 -49.4902,102.325 -28.1619,23.1626 -69.8293,34.6719 -124.84,34.6719 -57.3309,0 -99.1602,-10.5023 -125.326,-31.5068 -26.1658,-20.9866 -39.3296,-46.3251 -39.3296,-75.9976 0,-25.6622 9.33336,-46.8286 27.8202,-63.4992 18.343,-16.4907 65.837,-33.6648 142.842,-51.0008 77.0047,-17.4978 129.822,-32.6578 158.505,-45.6597 41.4876,-19.1702 72.329,-43.3399 92.1647,-72.8326 19.8356,-29.3308 29.6545,-63.1755 29.6545,-101.498 0,-38.1786 -10.826,-73.8396 -32.6578,-107.504 -21.8318,-33.6648 -52.9969,-59.8306 -93.8371,-78.4973 -40.8402,-18.6667 -86.6618,-28.0001 -137.824,-28.0001 -64.6681,0 -118.834,9.49521 -162.516,28.3238 -43.8254,18.8465 -77.9938,47.1703 -102.829,85.1691 -24.9969,37.837 -37.9988,80.6733 -39.3296,128.509z" /></glyph><glyph
         id="glyph85-21"
         horiz-adv-x="277"
         unicode=" " /><glyph
         id="glyph87-0"
         horiz-adv-x="722"
         unicode="Ç"><path
           id="path89-51"
           d="M586.994 251.173l95.006 -24.0078c-19.8356,-77.8319 -55.4966,-136.997 -107.001,-177.837 -51.5043,-40.8222 -114.5,-61.3232 -189.005,-61.3232 -76.9867,0 -139.659,15.6635 -187.998,47.1703 -48.3213,31.327 -84.9893,76.8249 -110.166,136.332 -25.1587,59.6508 -37.837,123.492 -37.837,191.828 0,74.505 14.1709,139.497 42.6745,194.993 28.5036,55.4966 69.0021,97.6676 121.495,126.513 52.5114,28.8273 110.328,43.16 173.341,43.16 71.6636,0 131.836,-18.1632 180.499,-54.6694 48.8248,-36.5062 82.8313,-87.6688 102.002,-153.668l-93.0099 -21.9936c-16.4907,51.9899 -40.6603,89.9887 -72.1672,113.655 -31.4888,23.8459 -71.1601,35.679 -118.996,35.679 -54.8312,0 -100.833,-13.1638 -137.663,-39.5094 -36.8299,-26.3276 -62.8338,-61.8267 -77.6701,-106.156 -14.9981,-44.5088 -22.4972,-90.3483 -22.4972,-137.501 0,-60.8377 8.82982,-114.014 26.4895,-159.332 17.6776,-45.4979 45.1742,-79.3425 82.5076,-101.84 37.3334,-22.4972 77.6701,-33.6648 121.172,-33.6648 52.9969,0 97.6676,15.3398 134.336,45.8396 36.668,30.6616 61.4851,75.9976 74.487,136.332zm-277.321 -337.17l25.3206 85.9964 65.0098 0 -16.167 -52.0078c27.8382,-3.32692 48.8248,-11.833 62.9957,-25.6622 14.1709,-13.6673 21.1664,-28.9892 21.1664,-45.8216 0,-24.3495 -11.833,-45.8396 -35.4991,-64.5063 -23.5042,-18.6667 -59.1652,-28.0001 -106.659,-28.0001 -26.8491,0 -50.5152,0 -70.8364,0l4.99937 62.0066c21.1664,-0.683367 36.4882,-1.00707 46.5049,-1.00707 30.8235,0 52.6552,4.17214 65.1537,12.6603 9.51319,6.50997 14.3327,14.3327 14.3327,23.8459 0,5.8266 -1.8343,10.9878 -5.66475,15.4837 -3.6686,4.51382 -10.5023,8.50612 -20.501,11.6712 -10.1606,3.16507 -26.8312,4.99937 -50.1556,5.34105z" /></glyph><glyph
         id="glyph91-1"
         horiz-adv-x="667"
         unicode="P"><path
           id="path93-0"
           d="M77.0014 0l0 715.999 270.333 0c47.4991,0 83.8319,-2.3322 108.998,-6.83051 35.1667,-5.83403 64.6655,-17.0003 88.4998,-33.3363 23.8343,-16.4985 43.0008,-39.4989 57.4992,-68.9977 14.502,-29.5023 21.6682,-62.0011 21.6682,-97.5 0,-60.6689 -19.3325,-112.168 -58.1671,-154.169 -38.665,-42.1668 -108.832,-63.1637 -210.166,-63.1637l-183.668 0 0 -292.002 -94.9981 0zm94.9981 376l185 0c61.3332,0 104.666,11.3324 130.501,34.1667 25.6683,22.8343 38.4989,54.8349 38.4989,96.3339 0,29.8344 -7.49837,55.4992 -22.6647,76.8317 -15.1663,21.3361 -35.1667,35.5024 -59.835,42.3364 -16.0003,4.16615 -45.499,6.33227 -88.3337,6.33227l-183.166 0 0 -256.001z" /></glyph><glyph
         id="glyph95-8"
         horiz-adv-x="833"
         unicode="M"><path
           id="path97-5"
           d="M75.0013 0l0 715.999 141.999 0 169.332 -506.832c15.6681,-47.1669 27.0005,-82.4997 34.1667,-105.998 8.16976,26.0005 21.0004,64.3333 38.3364,114.832l172.332 497.998 126.833 0 0 -715.999 -90.9981 0 0 599 -209 -599 -85.3337 0 -206.668 610 0 -610 -90.9981 0z" /></glyph><glyph
         id="glyph99-06"
         horiz-adv-x="777"
         unicode="G"><path
           id="path101-4"
           d="M412 281.001l0 83.998 302.998 0 0 -265.333c-46.4991,-37.0007 -94.4999,-65.0011 -143.999,-83.6658 -49.4991,-18.6682 -100.334,-28.0005 -152.331,-28.0005 -70.3334,0 -134.168,15.0003 -191.668,45.1669 -57.3332,30.0005 -100.832,73.6656 -129.999,130.501 -29.3362,57.001 -44.0008,120.666 -44.0008,190.834 0,69.6655 14.4985,134.667 43.6651,195.166 29.1666,60.3332 71.0013,105.168 125.667,134.335 54.6688,29.3327 117.666,43.9972 189,43.9972 51.6688,0 98.5,-8.3323 140.335,-25.1665 41.8347,-16.8307 74.6656,-40.1668 98.3339,-69.9977 23.8308,-30.0005 41.8311,-69.1673 54.167,-117.334l-85.4997 -23.3326c-10.8341,36.3328 -24.1665,64.9976 -40.0007,85.998 -16.0003,20.8343 -38.6685,37.5024 -68.3334,50.0009 -29.5023,12.4985 -62.3333,18.8343 -98.5,18.8343 -43.1668,0 -80.4997,-6.66796 -112.168,-19.8343 -31.4988,-13.1663 -56.8314,-30.4988 -76.3335,-52.167 -19.3325,-21.4986 -34.3328,-45.1669 -45.0008,-70.8316 -18.1664,-44.5026 -27.3326,-92.4999 -27.3326,-144.335 0,-64.0011 11.0002,-117.5 32.8345,-160.667 22.0004,-43.0008 54.001,-74.9978 95.8321,-95.8321 42.0007,-20.8343 86.4998,-31.3327 133.667,-31.3327 41.0007,0 81.0014,8.00014 120.002,23.8308 38.9972,16.0003 68.4994,32.8345 88.6659,51.0009l0 134.168 -210 0z" /></glyph></font><style
       id="style103-6"
       type="text/css">
   
    @font-face { font-family:&quot;Arial&quot;;src:url(&quot;#FontID0&quot;) format(svg)}
    .fil3 {fill:#373435}
    .fil2 {fill:#544430}
    .fil1 {fill:#68944A}
    .fil0 {fill:#FEFEFE}
    .fnt1 {font-weight:normal;font-size:556.07;font-family:'Arial'}
    .fnt0 {font-weight:normal;font-size:2829.95;font-family:'Arial'}
   
  </style><font
       id="FontID0-3-2"
       horiz-adv-x="667"
       font-variant="normal"
       font-style="normal"
       font-weight="400"
       horiz-origin-x="0"
       horiz-origin-y="0"
       vert-origin-x="45"
       vert-origin-y="90"
       vert-adv-y="90"
       style="font-style:normal;font-variant:normal;font-weight:400"><font-face
         font-family="Arial"
         id="font-face7-5-5" /><missing-glyph
         id="missing-glyph9-6-8"><path
           d="M0 0z"
           id="path11-2-6" /></missing-glyph><glyph
         unicode="U"
         horiz-adv-x="722"
         id="glyph13-9-2"><path
           d="M545.992 716.007l95.006 0 0 -413.509c0,-72.0053 -8.16444,-129.156 -24.3315,-171.489 -16.3289,-42.1709 -45.6597,-76.681 -87.9925,-103.17 -42.5126,-26.5075 -98.0092,-39.8331 -167.011,-39.8331 -66.8261,0 -121.657,11.4914 -164.17,34.6539 -42.6565,23.1805 -72.9944,56.5037 -91.1576,100.347 -18.1632,43.8254 -27.3347,103.656 -27.3347,179.492l0 413.509 95.006 0 0 -413.347c0,-62.1684 5.8266,-108.152 17.318,-137.501 11.5093,-29.4927 31.1831,-52.3315 59.345,-68.1569 28.0001,-16.0052 62.3303,-24.0078 102.829,-24.0078 69.3258,0 118.834,15.8433 148.327,47.3322 29.5107,31.6687 44.1671,92.3445 44.1671,182.333l0 413.347z"
           id="path15-1-8" /></glyph><glyph
         unicode="D"
         horiz-adv-x="722"
         id="glyph17-2-4"><path
           d="M77.0014 0l0 715.999 246.665 0c55.6653,0 98.1678,-3.33221 127.5,-10.1663 41.0007,-9.4984 76.0013,-26.6648 104.998,-51.3331 37.8346,-32.0006 66.0012,-72.6656 84.6693,-122.331 18.8307,-49.6687 28.1666,-106.5 28.1666,-170.335 0,-54.3331 -6.3358,-102.5 -19.0003,-144.501 -12.6681,-42.0007 -29.0005,-76.8317 -48.8348,-104.334 -20.0004,-27.4987 -41.665,-49.1634 -65.3333,-64.8315 -23.4986,-15.8342 -52.0009,-27.8344 -85.3337,-36.0006 -33.4988,-8.16622 -71.8317,-12.1663 -115.165,-12.1663l-258.333 0zm94.9981 84.0015l152.667 0c47.1669,0 84.1676,4.33223 110.998,13.1663 26.8344,8.83054 48.1669,21.1665 64.1672,37.1667 22.3361,22.4986 39.8346,52.8313 52.3331,90.832 12.502,38.0007 18.8343,84.0015 18.8343,138.169 0,74.9978 -12.3324,132.667 -36.8346,173 -24.4987,40.3329 -54.3331,67.3333 -89.4998,80.9979 -25.3326,9.8341 -66.1637,14.6681 -122.497,14.6681l-150.169 0 0 -547.999z"
           id="path19-7-72" /></glyph><glyph
         unicode="R"
         horiz-adv-x="722"
         id="glyph21-0-4"><path
           d="M79.0008 0l0 716.007 317.334 0c63.8229,0 112.324,-6.50997 145.503,-19.3321 33.1613,-12.8401 59.6687,-35.5171 79.4864,-68.013 19.8356,-32.4959 29.6725,-68.4986 29.6725,-107.828 0,-50.8389 -16.4907,-93.6753 -49.3283,-128.509 -32.8376,-34.8158 -83.4967,-56.8274 -152.175,-66.3226 25.1767,-11.9949 44.1671,-24.0078 57.1691,-35.661 27.6764,-25.3385 53.8421,-57.1691 78.3355,-95.3477l123.833 -194.993 -118.33 0 -94.6643 148.992c-27.4965,43.178 -50.3354,76.0156 -68.1749,98.8365 -18.0013,22.8389 -33.9885,38.6642 -48.1594,47.8357 -14.009,9.00966 -28.5036,15.3398 -43.178,19.0084 -10.6641,2.158 -28.1619,3.32692 -52.6552,3.32692l-109.662 0 0 -318 -95.006 0zm95.006 400.004l203.32 0c43.3399,0 77.0047,4.49584 101.336,13.4875 24.3315,8.84781 42.8363,23.1805 55.3348,43.0162 12.6603,19.6558 19.0084,40.984 19.0084,64.1646 0,33.8267 -12.1747,61.8267 -36.668,83.6585 -24.5113,21.8318 -63.1755,32.6757 -116.011,32.6757l-226.32 0 0 -237.003z"
           id="path23-9-0" /></glyph><glyph
         unicode="A"
         horiz-adv-x="667"
         id="glyph25-3-6"><path
           d="M-1.49826 0l274.666 715.999 104.164 0 291.5 -715.999 -107.832 0 -82.8319 217 -301.5 0 -77.6657 -217 -100.5 0zm205.997 294.002l244.001 0 -74.6656 198.498c-22.4986,60.3332 -39.4989,110.168 -51.3331,149.501 -9.8341,-46.6687 -23.0004,-92.4999 -39.4989,-137.833l-78.5032 -210.166z"
           id="path27-6-2" /></glyph><glyph
         unicode="-"
         horiz-adv-x="332"
         id="glyph29-0-9"><path
           d="M31.0033 215.009l0 87.9925 271.998 0 0 -87.9925 -271.998 0z"
           id="path31-6-9" /></glyph><glyph
         unicode="O"
         horiz-adv-x="777"
         id="glyph33-2-0"><path
           d="M47.9976 348.499c0,118.672 32.0104,211.664 95.8333,278.832 63.8409,67.1678 146.169,100.671 247.163,100.671 66.1787,0 125.668,-15.8433 178.844,-47.3322 52.9969,-31.5068 93.4954,-75.4941 121.334,-131.998 27.8202,-56.3418 41.8293,-120.345 41.8293,-191.846 0,-72.4909 -14.6744,-137.501 -44.0053,-194.652 -29.3308,-57.3489 -70.8364,-100.671 -124.499,-130.002 -53.8242,-29.5107 -111.838,-44.1671 -173.989,-44.1671 -67.5095,0 -127.682,16.3289 -180.841,48.8248 -52.9969,32.4959 -93.3336,76.8428 -120.668,133.167 -27.3347,56.162 -41.002,115.669 -41.002,178.503zm98.0092 -1.67245c0,-86.1582 23.1626,-153.991 69.4877,-203.5 46.3431,-49.4902 104.501,-74.3252 174.51,-74.3252 71.322,0 129.822,24.9969 176.003,74.9906 45.9834,50.0117 68.9841,121.01 68.9841,213.013 0,58.1581 -9.81891,108.997 -29.4927,152.319 -19.6738,43.3399 -48.5011,77.0047 -86.3381,100.851 -37.9988,23.8279 -80.4935,35.8228 -127.664,35.8228 -67.006,0 -124.661,-23.0007 -173,-69.0021 -48.3392,-46.0014 -72.4909,-122.664 -72.4909,-230.169z"
           id="path35-6-8" /></glyph><glyph
         unicode="Ô"
         horiz-adv-x="777"
         id="glyph37-1-1"><path
           d="M47.9976 348.499c0,118.672 32.0104,211.664 95.8333,278.832 63.8409,67.1678 146.169,100.671 247.163,100.671 66.1787,0 125.668,-15.8433 178.844,-47.3322 52.9969,-31.5068 93.4954,-75.4941 121.334,-131.998 27.8202,-56.3418 41.8293,-120.345 41.8293,-191.846 0,-72.4909 -14.6744,-137.501 -44.0053,-194.652 -29.3308,-57.3489 -70.8364,-100.671 -124.499,-130.002 -53.8242,-29.5107 -111.838,-44.1671 -173.989,-44.1671 -67.5095,0 -127.682,16.3289 -180.841,48.8248 -52.9969,32.4959 -93.3336,76.8428 -120.668,133.167 -27.3347,56.162 -41.002,115.669 -41.002,178.503zm98.0092 -1.67245c0,-86.1582 23.1626,-153.991 69.4877,-203.5 46.3431,-49.4902 104.501,-74.3252 174.51,-74.3252 71.322,0 129.822,24.9969 176.003,74.9906 45.9834,50.0117 68.9841,121.01 68.9841,213.013 0,58.1581 -9.81891,108.997 -29.4927,152.319 -19.6738,43.3399 -48.5011,77.0047 -86.3381,100.851 -37.9988,23.8279 -80.4935,35.8228 -127.664,35.8228 -67.006,0 -124.661,-23.0007 -173,-69.0021 -48.3392,-46.0014 -72.4909,-122.664 -72.4909,-230.169zm243.998 496.179l-54.5075 -83.0111 -100.005 0 104.501 136.997 93.0099 0 111.497 -136.997 -100.005 0 -54.4895 83.0111z"
           id="path39-8-3" /></glyph><glyph
         unicode="L"
         horiz-adv-x="556"
         id="glyph41-7-1"><path
           d="M72.9944 0l0 716.007 95.006 0 0 -632.007 352.006 0 0 -84.0002 -447.012 0z"
           id="path43-9-10" /></glyph><glyph
         unicode="Ã"
         horiz-adv-x="667"
         id="glyph45-2-3"><path
           d="M-1.49262 0l274.66 716.007 104.16 0 291.51 -716.007 -107.828 0 -82.8493 217.005 -301.491 0 -77.6701 -217.005 -100.491 0zm205.999 293.992l243.998 0 -74.6669 198.5c-22.4972,60.3341 -39.5094,110.166 -51.3425,149.514 -9.83689,-46.6668 -23.0007,-92.5063 -39.4914,-137.842l-78.4973 -210.171zm-41.5056 465.013c-0.341684,33.503 8.99167,60.1543 27.8382,80.1698 18.4869,19.8176 42.3328,29.8164 71.322,29.8164 20.1773,0 47.6739,-8.48814 82.3457,-25.6622 19.1523,-9.49521 34.4921,-14.3327 45.8216,-14.3327 10.5023,0 18.5049,2.84137 24.0078,8.50612 5.5029,5.5029 9.33336,16.8324 11.6712,33.503l62.9957 0c-1.00707,-37.0097 -10.3404,-64.6681 -28.0001,-83.173 -17.6776,-18.5049 -39.995,-27.8382 -67.3297,-27.8382 -20.3392,0 -47.3322,9.17151 -80.6733,27.3347 -21.8318,11.833 -37.837,17.6776 -47.9976,17.6776 -11.0058,0 -19.9975,-3.84844 -26.6693,-11.6712 -7.17536,-7.66091 -10.6641,-19.1702 -10.3404,-34.3302l-64.9918 0z"
           id="path47-0-4" /></glyph><glyph
         unicode="Z"
         horiz-adv-x="610"
         id="glyph49-2-0"><path
           d="M19.9975 0l0 87.507 366.662 458.989c26.3456,32.3341 51.0008,60.8377 74.505,85.5108l-399.158 0 0 84.0002 511.986 0 0 -84.0002 -402.162 -496.682 -42.9982 -51.3245 457.173 0 0 -84.0002 -566.008 0z"
           id="path51-3-3" /></glyph><glyph
         unicode="I"
         horiz-adv-x="277"
         id="glyph53-7-9"><path
           d="M92.9919 0l0 716.007 95.006 0 0 -716.007 -95.006 0z"
           id="path55-5-1" /></glyph><glyph
         unicode="C"
         horiz-adv-x="722"
         id="glyph57-9-9"><path
           d="M586.994 251.173l95.006 -24.0078c-19.8356,-77.8319 -55.4966,-136.997 -107.001,-177.837 -51.5043,-40.8222 -114.5,-61.3232 -189.005,-61.3232 -76.9867,0 -139.659,15.6635 -187.998,47.1703 -48.3213,31.327 -84.9893,76.8249 -110.166,136.332 -25.1587,59.6508 -37.837,123.492 -37.837,191.828 0,74.505 14.1709,139.497 42.6745,194.993 28.5036,55.4966 69.0021,97.6676 121.495,126.513 52.5114,28.8273 110.328,43.16 173.341,43.16 71.6636,0 131.836,-18.1632 180.499,-54.6694 48.8248,-36.5062 82.8313,-87.6688 102.002,-153.668l-93.0099 -21.9936c-16.4907,51.9899 -40.6603,89.9887 -72.1672,113.655 -31.4888,23.8459 -71.1601,35.679 -118.996,35.679 -54.8312,0 -100.833,-13.1638 -137.663,-39.5094 -36.8299,-26.3276 -62.8338,-61.8267 -77.6701,-106.156 -14.9981,-44.5088 -22.4972,-90.3483 -22.4972,-137.501 0,-60.8377 8.82982,-114.014 26.4895,-159.332 17.6776,-45.4979 45.1742,-79.3425 82.5076,-101.84 37.3334,-22.4972 77.6701,-33.6648 121.172,-33.6648 52.9969,0 97.6676,15.3398 134.336,45.8396 36.668,30.6616 61.4851,75.9976 74.487,136.332z"
           id="path59-2-6" /></glyph><glyph
         unicode="T"
         horiz-adv-x="610"
         id="glyph61-2-9"><path
           d="M258.996 0l0 632.007 -235.995 0 0 84.0002 566.997 0 0 -84.0002 -235.995 0 0 -632.007 -95.006 0z"
           id="path63-8-3" /></glyph><glyph
         unicode="N"
         horiz-adv-x="722"
         id="glyph65-9-3"><path
           d="M75.9976 0l0 716.007 97.3439 0 375.654 -562.016 0 562.016 90.9957 0 0 -716.007 -97.3259 0 -375.672 561.998 0 -561.998 -90.9957 0z"
           id="path67-7-8" /></glyph><glyph
         unicode="Ó"
         horiz-adv-x="777"
         id="glyph69-3-0"><path
           d="M47.9976 348.499c0,118.672 32.0104,211.664 95.8333,278.832 63.8409,67.1678 146.169,100.671 247.163,100.671 66.1787,0 125.668,-15.8433 178.844,-47.3322 52.9969,-31.5068 93.4954,-75.4941 121.334,-131.998 27.8202,-56.3418 41.8293,-120.345 41.8293,-191.846 0,-72.4909 -14.6744,-137.501 -44.0053,-194.652 -29.3308,-57.3489 -70.8364,-100.671 -124.499,-130.002 -53.8242,-29.5107 -111.838,-44.1671 -173.989,-44.1671 -67.5095,0 -127.682,16.3289 -180.841,48.8248 -52.9969,32.4959 -93.3336,76.8428 -120.668,133.167 -27.3347,56.162 -41.002,115.669 -41.002,178.503zm98.0092 -1.67245c0,-86.1582 23.1626,-153.991 69.4877,-203.5 46.3431,-49.4902 104.501,-74.3252 174.51,-74.3252 71.322,0 129.822,24.9969 176.003,74.9906 45.9834,50.0117 68.9841,121.01 68.9841,213.013 0,58.1581 -9.81891,108.997 -29.4927,152.319 -19.6738,43.3399 -48.5011,77.0047 -86.3381,100.851 -37.9988,23.8279 -80.4935,35.8228 -127.664,35.8228 -67.006,0 -124.661,-23.0007 -173,-69.0021 -48.3392,-46.0014 -72.4909,-122.664 -72.4909,-230.169zm171.993 413.167l64.0027 136.997 115.993 0 -107.001 -136.997 -72.9944 0z"
           id="path71-6-56" /></glyph><glyph
         unicode="V"
         horiz-adv-x="667"
         id="glyph73-1-64"><path
           d="M281.008 0l-276.674 716.007 102.667 0 186.002 -520.348c14.8363,-41.6674 27.4965,-80.6553 37.4953,-117.162 11.0058,39.1677 23.8279,78.1736 38.5023,117.162l192.997 520.348 96.6605 0 -279.156 -716.007 -98.4948 0z"
           id="path75-2-0" /></glyph><glyph
         unicode="E"
         horiz-adv-x="667"
         id="glyph77-9-0"><path
           d="M79.0014 0l0 715.999 516.999 0 0 -83.998 -422 0 0 -220 395 0 0 -84.0015 -395 0 0 -243.997 439.001 0 0 -84.0015 -533.999 0z"
           id="path79-3-4" /></glyph><glyph
         unicode="S"
         horiz-adv-x="667"
         id="glyph81-1-6"><path
           d="M46.0014 230.007l88.9996 7.98461c4.17214,-35.9847 13.991,-65.4954 29.4927,-88.6579 15.5016,-23.0007 39.5094,-41.6674 72.0053,-56.0001 32.4959,-14.1709 69.164,-21.3283 109.842,-21.3283 36.1645,0 67.995,5.32307 95.6534,16.167 27.6764,10.826 48.1774,25.6622 61.6649,44.4908 13.5055,18.8286 20.3392,39.3296 20.3392,61.3412 0,22.3353 -6.49199,41.8293 -19.4939,58.6617 -13.002,16.6706 -34.51,30.6616 -64.5063,42.1709 -19.1702,7.33721 -61.6649,18.9904 -127.502,34.8337 -65.837,15.8253 -111.838,30.6616 -138.166,44.6706 -34.1684,17.9833 -59.4889,40.3187 -76.1595,66.8261 -16.8324,26.5075 -25.1767,56.3238 -25.1767,89.1614 0,36.3443 10.3404,70.171 30.8414,101.498 20.501,31.5068 50.3354,55.3348 89.8268,71.6816 39.3296,16.3289 83.173,24.4933 131.332,24.4933 52.9969,0 99.8435,-8.50612 140.342,-25.6622 40.4985,-17.0122 71.6636,-42.1709 93.4954,-75.5121 21.8318,-33.1613 33.503,-70.8364 35.1754,-112.828l-91.0137 -6.99552c-4.81954,45.1562 -21.3283,79.3245 -49.4902,102.325 -28.1619,23.1626 -69.8293,34.6719 -124.84,34.6719 -57.3309,0 -99.1602,-10.5023 -125.326,-31.5068 -26.1658,-20.9866 -39.3296,-46.3251 -39.3296,-75.9976 0,-25.6622 9.33336,-46.8286 27.8202,-63.4992 18.343,-16.4907 65.837,-33.6648 142.842,-51.0008 77.0047,-17.4978 129.822,-32.6578 158.505,-45.6597 41.4876,-19.1702 72.329,-43.3399 92.1647,-72.8326 19.8356,-29.3308 29.6545,-63.1755 29.6545,-101.498 0,-38.1786 -10.826,-73.8396 -32.6578,-107.504 -21.8318,-33.6648 -52.9969,-59.8306 -93.8371,-78.4973 -40.8402,-18.6667 -86.6618,-28.0001 -137.824,-28.0001 -64.6681,0 -118.834,9.49521 -162.516,28.3238 -43.8254,18.8465 -77.9938,47.1703 -102.829,85.1691 -24.9969,37.837 -37.9988,80.6733 -39.3296,128.509z"
           id="path83-9-2" /></glyph><glyph
         unicode=" "
         horiz-adv-x="277"
         id="glyph85-4-6" /><glyph
         unicode="Ç"
         horiz-adv-x="722"
         id="glyph87-7-7"><path
           d="M586.994 251.173l95.006 -24.0078c-19.8356,-77.8319 -55.4966,-136.997 -107.001,-177.837 -51.5043,-40.8222 -114.5,-61.3232 -189.005,-61.3232 -76.9867,0 -139.659,15.6635 -187.998,47.1703 -48.3213,31.327 -84.9893,76.8249 -110.166,136.332 -25.1587,59.6508 -37.837,123.492 -37.837,191.828 0,74.505 14.1709,139.497 42.6745,194.993 28.5036,55.4966 69.0021,97.6676 121.495,126.513 52.5114,28.8273 110.328,43.16 173.341,43.16 71.6636,0 131.836,-18.1632 180.499,-54.6694 48.8248,-36.5062 82.8313,-87.6688 102.002,-153.668l-93.0099 -21.9936c-16.4907,51.9899 -40.6603,89.9887 -72.1672,113.655 -31.4888,23.8459 -71.1601,35.679 -118.996,35.679 -54.8312,0 -100.833,-13.1638 -137.663,-39.5094 -36.8299,-26.3276 -62.8338,-61.8267 -77.6701,-106.156 -14.9981,-44.5088 -22.4972,-90.3483 -22.4972,-137.501 0,-60.8377 8.82982,-114.014 26.4895,-159.332 17.6776,-45.4979 45.1742,-79.3425 82.5076,-101.84 37.3334,-22.4972 77.6701,-33.6648 121.172,-33.6648 52.9969,0 97.6676,15.3398 134.336,45.8396 36.668,30.6616 61.4851,75.9976 74.487,136.332zm-277.321 -337.17l25.3206 85.9964 65.0098 0 -16.167 -52.0078c27.8382,-3.32692 48.8248,-11.833 62.9957,-25.6622 14.1709,-13.6673 21.1664,-28.9892 21.1664,-45.8216 0,-24.3495 -11.833,-45.8396 -35.4991,-64.5063 -23.5042,-18.6667 -59.1652,-28.0001 -106.659,-28.0001 -26.8491,0 -50.5152,0 -70.8364,0l4.99937 62.0066c21.1664,-0.683367 36.4882,-1.00707 46.5049,-1.00707 30.8235,0 52.6552,4.17214 65.1537,12.6603 9.51319,6.50997 14.3327,14.3327 14.3327,23.8459 0,5.8266 -1.8343,10.9878 -5.66475,15.4837 -3.6686,4.51382 -10.5023,8.50612 -20.501,11.6712 -10.1606,3.16507 -26.8312,4.99937 -50.1556,5.34105z"
           id="path89-8-5" /></glyph><glyph
         unicode="P"
         horiz-adv-x="667"
         id="glyph91-4-6"><path
           d="M77.0014 0l0 715.999 270.333 0c47.4991,0 83.8319,-2.3322 108.998,-6.83051 35.1667,-5.83403 64.6655,-17.0003 88.4998,-33.3363 23.8343,-16.4985 43.0008,-39.4989 57.4992,-68.9977 14.502,-29.5023 21.6682,-62.0011 21.6682,-97.5 0,-60.6689 -19.3325,-112.168 -58.1671,-154.169 -38.665,-42.1668 -108.832,-63.1637 -210.166,-63.1637l-183.668 0 0 -292.002 -94.9981 0zm94.9981 376l185 0c61.3332,0 104.666,11.3324 130.501,34.1667 25.6683,22.8343 38.4989,54.8349 38.4989,96.3339 0,29.8344 -7.49837,55.4992 -22.6647,76.8317 -15.1663,21.3361 -35.1667,35.5024 -59.835,42.3364 -16.0003,4.16615 -45.499,6.33227 -88.3337,6.33227l-183.166 0 0 -256.001z"
           id="path93-5-9" /></glyph><glyph
         unicode="M"
         horiz-adv-x="833"
         id="glyph95-0-8"><path
           d="M75.0013 0l0 715.999 141.999 0 169.332 -506.832c15.6681,-47.1669 27.0005,-82.4997 34.1667,-105.998 8.16976,26.0005 21.0004,64.3333 38.3364,114.832l172.332 497.998 126.833 0 0 -715.999 -90.9981 0 0 599 -209 -599 -85.3337 0 -206.668 610 0 -610 -90.9981 0z"
           id="path97-3-7" /></glyph><glyph
         unicode="G"
         horiz-adv-x="777"
         id="glyph99-6-2"><path
           d="M412 281.001l0 83.998 302.998 0 0 -265.333c-46.4991,-37.0007 -94.4999,-65.0011 -143.999,-83.6658 -49.4991,-18.6682 -100.334,-28.0005 -152.331,-28.0005 -70.3334,0 -134.168,15.0003 -191.668,45.1669 -57.3332,30.0005 -100.832,73.6656 -129.999,130.501 -29.3362,57.001 -44.0008,120.666 -44.0008,190.834 0,69.6655 14.4985,134.667 43.6651,195.166 29.1666,60.3332 71.0013,105.168 125.667,134.335 54.6688,29.3327 117.666,43.9972 189,43.9972 51.6688,0 98.5,-8.3323 140.335,-25.1665 41.8347,-16.8307 74.6656,-40.1668 98.3339,-69.9977 23.8308,-30.0005 41.8311,-69.1673 54.167,-117.334l-85.4997 -23.3326c-10.8341,36.3328 -24.1665,64.9976 -40.0007,85.998 -16.0003,20.8343 -38.6685,37.5024 -68.3334,50.0009 -29.5023,12.4985 -62.3333,18.8343 -98.5,18.8343 -43.1668,0 -80.4997,-6.66796 -112.168,-19.8343 -31.4988,-13.1663 -56.8314,-30.4988 -76.3335,-52.167 -19.3325,-21.4986 -34.3328,-45.1669 -45.0008,-70.8316 -18.1664,-44.5026 -27.3326,-92.4999 -27.3326,-144.335 0,-64.0011 11.0002,-117.5 32.8345,-160.667 22.0004,-43.0008 54.001,-74.9978 95.8321,-95.8321 42.0007,-20.8343 86.4998,-31.3327 133.667,-31.3327 41.0007,0 81.0014,8.00014 120.002,23.8308 38.9972,16.0003 68.4994,32.8345 88.6659,51.0009l0 134.168 -210 0z"
           id="path101-1-8" /></glyph></font><style
       type="text/css"
       id="style103-0-2">
   
    @font-face { font-family:&quot;Arial&quot;;src:url(&quot;#FontID0&quot;) format(svg)}
    .fil3 {fill:#373435}
    .fil2 {fill:#544430}
    .fil1 {fill:#68944A}
    .fil0 {fill:#FEFEFE}
    .fnt1 {font-weight:normal;font-size:556.07;font-family:'Arial'}
    .fnt0 {font-weight:normal;font-size:2829.95;font-family:'Arial'}
   
  </style><font
       style="font-style:normal;font-variant:normal;font-weight:400"
       vert-adv-y="90"
       vert-origin-y="90"
       vert-origin-x="45"
       horiz-origin-y="0"
       horiz-origin-x="0"
       font-weight="400"
       font-style="normal"
       font-variant="normal"
       horiz-adv-x="667"
       id="FontID0-356"><font-face
         id="font-face7-2"
         font-family="Arial" /><missing-glyph
         id="missing-glyph9-9"><path
           id="path11-1"
           d="M0 0z" /></missing-glyph><glyph
         id="glyph13-2"
         horiz-adv-x="722"
         unicode="U"><path
           id="path15-7"
           d="M545.992 716.007l95.006 0 0 -413.509c0,-72.0053 -8.16444,-129.156 -24.3315,-171.489 -16.3289,-42.1709 -45.6597,-76.681 -87.9925,-103.17 -42.5126,-26.5075 -98.0092,-39.8331 -167.011,-39.8331 -66.8261,0 -121.657,11.4914 -164.17,34.6539 -42.6565,23.1805 -72.9944,56.5037 -91.1576,100.347 -18.1632,43.8254 -27.3347,103.656 -27.3347,179.492l0 413.509 95.006 0 0 -413.347c0,-62.1684 5.8266,-108.152 17.318,-137.501 11.5093,-29.4927 31.1831,-52.3315 59.345,-68.1569 28.0001,-16.0052 62.3303,-24.0078 102.829,-24.0078 69.3258,0 118.834,15.8433 148.327,47.3322 29.5107,31.6687 44.1671,92.3445 44.1671,182.333l0 413.347z" /></glyph><glyph
         id="glyph17-0"
         horiz-adv-x="722"
         unicode="D"><path
           id="path19-9"
           d="M77.0014 0l0 715.999 246.665 0c55.6653,0 98.1678,-3.33221 127.5,-10.1663 41.0007,-9.4984 76.0013,-26.6648 104.998,-51.3331 37.8346,-32.0006 66.0012,-72.6656 84.6693,-122.331 18.8307,-49.6687 28.1666,-106.5 28.1666,-170.335 0,-54.3331 -6.3358,-102.5 -19.0003,-144.501 -12.6681,-42.0007 -29.0005,-76.8317 -48.8348,-104.334 -20.0004,-27.4987 -41.665,-49.1634 -65.3333,-64.8315 -23.4986,-15.8342 -52.0009,-27.8344 -85.3337,-36.0006 -33.4988,-8.16622 -71.8317,-12.1663 -115.165,-12.1663l-258.333 0zm94.9981 84.0015l152.667 0c47.1669,0 84.1676,4.33223 110.998,13.1663 26.8344,8.83054 48.1669,21.1665 64.1672,37.1667 22.3361,22.4986 39.8346,52.8313 52.3331,90.832 12.502,38.0007 18.8343,84.0015 18.8343,138.169 0,74.9978 -12.3324,132.667 -36.8346,173 -24.4987,40.3329 -54.3331,67.3333 -89.4998,80.9979 -25.3326,9.8341 -66.1637,14.6681 -122.497,14.6681l-150.169 0 0 -547.999z" /></glyph><glyph
         id="glyph21-3"
         horiz-adv-x="722"
         unicode="R"><path
           id="path23-6"
           d="M79.0008 0l0 716.007 317.334 0c63.8229,0 112.324,-6.50997 145.503,-19.3321 33.1613,-12.8401 59.6687,-35.5171 79.4864,-68.013 19.8356,-32.4959 29.6725,-68.4986 29.6725,-107.828 0,-50.8389 -16.4907,-93.6753 -49.3283,-128.509 -32.8376,-34.8158 -83.4967,-56.8274 -152.175,-66.3226 25.1767,-11.9949 44.1671,-24.0078 57.1691,-35.661 27.6764,-25.3385 53.8421,-57.1691 78.3355,-95.3477l123.833 -194.993 -118.33 0 -94.6643 148.992c-27.4965,43.178 -50.3354,76.0156 -68.1749,98.8365 -18.0013,22.8389 -33.9885,38.6642 -48.1594,47.8357 -14.009,9.00966 -28.5036,15.3398 -43.178,19.0084 -10.6641,2.158 -28.1619,3.32692 -52.6552,3.32692l-109.662 0 0 -318 -95.006 0zm95.006 400.004l203.32 0c43.3399,0 77.0047,4.49584 101.336,13.4875 24.3315,8.84781 42.8363,23.1805 55.3348,43.0162 12.6603,19.6558 19.0084,40.984 19.0084,64.1646 0,33.8267 -12.1747,61.8267 -36.668,83.6585 -24.5113,21.8318 -63.1755,32.6757 -116.011,32.6757l-226.32 0 0 -237.003z" /></glyph><glyph
         id="glyph25-0"
         horiz-adv-x="667"
         unicode="A"><path
           id="path27-62"
           d="M-1.49826 0l274.666 715.999 104.164 0 291.5 -715.999 -107.832 0 -82.8319 217 -301.5 0 -77.6657 -217 -100.5 0zm205.997 294.002l244.001 0 -74.6656 198.498c-22.4986,60.3332 -39.4989,110.168 -51.3331,149.501 -9.8341,-46.6687 -23.0004,-92.4999 -39.4989,-137.833l-78.5032 -210.166z" /></glyph><glyph
         id="glyph29-61"
         horiz-adv-x="332"
         unicode="-"><path
           id="path31-87"
           d="M31.0033 215.009l0 87.9925 271.998 0 0 -87.9925 -271.998 0z" /></glyph><glyph
         id="glyph33-9"
         horiz-adv-x="777"
         unicode="O"><path
           id="path35-2"
           d="M47.9976 348.499c0,118.672 32.0104,211.664 95.8333,278.832 63.8409,67.1678 146.169,100.671 247.163,100.671 66.1787,0 125.668,-15.8433 178.844,-47.3322 52.9969,-31.5068 93.4954,-75.4941 121.334,-131.998 27.8202,-56.3418 41.8293,-120.345 41.8293,-191.846 0,-72.4909 -14.6744,-137.501 -44.0053,-194.652 -29.3308,-57.3489 -70.8364,-100.671 -124.499,-130.002 -53.8242,-29.5107 -111.838,-44.1671 -173.989,-44.1671 -67.5095,0 -127.682,16.3289 -180.841,48.8248 -52.9969,32.4959 -93.3336,76.8428 -120.668,133.167 -27.3347,56.162 -41.002,115.669 -41.002,178.503zm98.0092 -1.67245c0,-86.1582 23.1626,-153.991 69.4877,-203.5 46.3431,-49.4902 104.501,-74.3252 174.51,-74.3252 71.322,0 129.822,24.9969 176.003,74.9906 45.9834,50.0117 68.9841,121.01 68.9841,213.013 0,58.1581 -9.81891,108.997 -29.4927,152.319 -19.6738,43.3399 -48.5011,77.0047 -86.3381,100.851 -37.9988,23.8279 -80.4935,35.8228 -127.664,35.8228 -67.006,0 -124.661,-23.0007 -173,-69.0021 -48.3392,-46.0014 -72.4909,-122.664 -72.4909,-230.169z" /></glyph><glyph
         id="glyph37-0"
         horiz-adv-x="777"
         unicode="Ô"><path
           id="path39-2"
           d="M47.9976 348.499c0,118.672 32.0104,211.664 95.8333,278.832 63.8409,67.1678 146.169,100.671 247.163,100.671 66.1787,0 125.668,-15.8433 178.844,-47.3322 52.9969,-31.5068 93.4954,-75.4941 121.334,-131.998 27.8202,-56.3418 41.8293,-120.345 41.8293,-191.846 0,-72.4909 -14.6744,-137.501 -44.0053,-194.652 -29.3308,-57.3489 -70.8364,-100.671 -124.499,-130.002 -53.8242,-29.5107 -111.838,-44.1671 -173.989,-44.1671 -67.5095,0 -127.682,16.3289 -180.841,48.8248 -52.9969,32.4959 -93.3336,76.8428 -120.668,133.167 -27.3347,56.162 -41.002,115.669 -41.002,178.503zm98.0092 -1.67245c0,-86.1582 23.1626,-153.991 69.4877,-203.5 46.3431,-49.4902 104.501,-74.3252 174.51,-74.3252 71.322,0 129.822,24.9969 176.003,74.9906 45.9834,50.0117 68.9841,121.01 68.9841,213.013 0,58.1581 -9.81891,108.997 -29.4927,152.319 -19.6738,43.3399 -48.5011,77.0047 -86.3381,100.851 -37.9988,23.8279 -80.4935,35.8228 -127.664,35.8228 -67.006,0 -124.661,-23.0007 -173,-69.0021 -48.3392,-46.0014 -72.4909,-122.664 -72.4909,-230.169zm243.998 496.179l-54.5075 -83.0111 -100.005 0 104.501 136.997 93.0099 0 111.497 -136.997 -100.005 0 -54.4895 83.0111z" /></glyph><glyph
         id="glyph41-3"
         horiz-adv-x="556"
         unicode="L"><path
           id="path43-7"
           d="M72.9944 0l0 716.007 95.006 0 0 -632.007 352.006 0 0 -84.0002 -447.012 0z" /></glyph><glyph
         id="glyph45-5"
         horiz-adv-x="667"
         unicode="Ã"><path
           id="path47-9"
           d="M-1.49262 0l274.66 716.007 104.16 0 291.51 -716.007 -107.828 0 -82.8493 217.005 -301.491 0 -77.6701 -217.005 -100.491 0zm205.999 293.992l243.998 0 -74.6669 198.5c-22.4972,60.3341 -39.5094,110.166 -51.3425,149.514 -9.83689,-46.6668 -23.0007,-92.5063 -39.4914,-137.842l-78.4973 -210.171zm-41.5056 465.013c-0.341684,33.503 8.99167,60.1543 27.8382,80.1698 18.4869,19.8176 42.3328,29.8164 71.322,29.8164 20.1773,0 47.6739,-8.48814 82.3457,-25.6622 19.1523,-9.49521 34.4921,-14.3327 45.8216,-14.3327 10.5023,0 18.5049,2.84137 24.0078,8.50612 5.5029,5.5029 9.33336,16.8324 11.6712,33.503l62.9957 0c-1.00707,-37.0097 -10.3404,-64.6681 -28.0001,-83.173 -17.6776,-18.5049 -39.995,-27.8382 -67.3297,-27.8382 -20.3392,0 -47.3322,9.17151 -80.6733,27.3347 -21.8318,11.833 -37.837,17.6776 -47.9976,17.6776 -11.0058,0 -19.9975,-3.84844 -26.6693,-11.6712 -7.17536,-7.66091 -10.6641,-19.1702 -10.3404,-34.3302l-64.9918 0z" /></glyph><glyph
         id="glyph49-22"
         horiz-adv-x="610"
         unicode="Z"><path
           id="path51-89"
           d="M19.9975 0l0 87.507 366.662 458.989c26.3456,32.3341 51.0008,60.8377 74.505,85.5108l-399.158 0 0 84.0002 511.986 0 0 -84.0002 -402.162 -496.682 -42.9982 -51.3245 457.173 0 0 -84.0002 -566.008 0z" /></glyph><glyph
         id="glyph53-73"
         horiz-adv-x="277"
         unicode="I"><path
           id="path55-6"
           d="M92.9919 0l0 716.007 95.006 0 0 -716.007 -95.006 0z" /></glyph><glyph
         id="glyph57-1"
         horiz-adv-x="722"
         unicode="C"><path
           id="path59-29"
           d="M586.994 251.173l95.006 -24.0078c-19.8356,-77.8319 -55.4966,-136.997 -107.001,-177.837 -51.5043,-40.8222 -114.5,-61.3232 -189.005,-61.3232 -76.9867,0 -139.659,15.6635 -187.998,47.1703 -48.3213,31.327 -84.9893,76.8249 -110.166,136.332 -25.1587,59.6508 -37.837,123.492 -37.837,191.828 0,74.505 14.1709,139.497 42.6745,194.993 28.5036,55.4966 69.0021,97.6676 121.495,126.513 52.5114,28.8273 110.328,43.16 173.341,43.16 71.6636,0 131.836,-18.1632 180.499,-54.6694 48.8248,-36.5062 82.8313,-87.6688 102.002,-153.668l-93.0099 -21.9936c-16.4907,51.9899 -40.6603,89.9887 -72.1672,113.655 -31.4888,23.8459 -71.1601,35.679 -118.996,35.679 -54.8312,0 -100.833,-13.1638 -137.663,-39.5094 -36.8299,-26.3276 -62.8338,-61.8267 -77.6701,-106.156 -14.9981,-44.5088 -22.4972,-90.3483 -22.4972,-137.501 0,-60.8377 8.82982,-114.014 26.4895,-159.332 17.6776,-45.4979 45.1742,-79.3425 82.5076,-101.84 37.3334,-22.4972 77.6701,-33.6648 121.172,-33.6648 52.9969,0 97.6676,15.3398 134.336,45.8396 36.668,30.6616 61.4851,75.9976 74.487,136.332z" /></glyph><glyph
         id="glyph61-3"
         horiz-adv-x="610"
         unicode="T"><path
           id="path63-1"
           d="M258.996 0l0 632.007 -235.995 0 0 84.0002 566.997 0 0 -84.0002 -235.995 0 0 -632.007 -95.006 0z" /></glyph><glyph
         id="glyph65-94"
         horiz-adv-x="722"
         unicode="N"><path
           id="path67-78"
           d="M75.9976 0l0 716.007 97.3439 0 375.654 -562.016 0 562.016 90.9957 0 0 -716.007 -97.3259 0 -375.672 561.998 0 -561.998 -90.9957 0z" /></glyph><glyph
         id="glyph69-45"
         horiz-adv-x="777"
         unicode="Ó"><path
           id="path71-0"
           d="M47.9976 348.499c0,118.672 32.0104,211.664 95.8333,278.832 63.8409,67.1678 146.169,100.671 247.163,100.671 66.1787,0 125.668,-15.8433 178.844,-47.3322 52.9969,-31.5068 93.4954,-75.4941 121.334,-131.998 27.8202,-56.3418 41.8293,-120.345 41.8293,-191.846 0,-72.4909 -14.6744,-137.501 -44.0053,-194.652 -29.3308,-57.3489 -70.8364,-100.671 -124.499,-130.002 -53.8242,-29.5107 -111.838,-44.1671 -173.989,-44.1671 -67.5095,0 -127.682,16.3289 -180.841,48.8248 -52.9969,32.4959 -93.3336,76.8428 -120.668,133.167 -27.3347,56.162 -41.002,115.669 -41.002,178.503zm98.0092 -1.67245c0,-86.1582 23.1626,-153.991 69.4877,-203.5 46.3431,-49.4902 104.501,-74.3252 174.51,-74.3252 71.322,0 129.822,24.9969 176.003,74.9906 45.9834,50.0117 68.9841,121.01 68.9841,213.013 0,58.1581 -9.81891,108.997 -29.4927,152.319 -19.6738,43.3399 -48.5011,77.0047 -86.3381,100.851 -37.9988,23.8279 -80.4935,35.8228 -127.664,35.8228 -67.006,0 -124.661,-23.0007 -173,-69.0021 -48.3392,-46.0014 -72.4909,-122.664 -72.4909,-230.169zm171.993 413.167l64.0027 136.997 115.993 0 -107.001 -136.997 -72.9944 0z" /></glyph><glyph
         id="glyph73-3"
         horiz-adv-x="667"
         unicode="V"><path
           id="path75-6"
           d="M281.008 0l-276.674 716.007 102.667 0 186.002 -520.348c14.8363,-41.6674 27.4965,-80.6553 37.4953,-117.162 11.0058,39.1677 23.8279,78.1736 38.5023,117.162l192.997 520.348 96.6605 0 -279.156 -716.007 -98.4948 0z" /></glyph><glyph
         id="glyph77-10"
         horiz-adv-x="667"
         unicode="E"><path
           id="path79-63"
           d="M79.0014 0l0 715.999 516.999 0 0 -83.998 -422 0 0 -220 395 0 0 -84.0015 -395 0 0 -243.997 439.001 0 0 -84.0015 -533.999 0z" /></glyph><glyph
         id="glyph81-2"
         horiz-adv-x="667"
         unicode="S"><path
           id="path83-06"
           d="M46.0014 230.007l88.9996 7.98461c4.17214,-35.9847 13.991,-65.4954 29.4927,-88.6579 15.5016,-23.0007 39.5094,-41.6674 72.0053,-56.0001 32.4959,-14.1709 69.164,-21.3283 109.842,-21.3283 36.1645,0 67.995,5.32307 95.6534,16.167 27.6764,10.826 48.1774,25.6622 61.6649,44.4908 13.5055,18.8286 20.3392,39.3296 20.3392,61.3412 0,22.3353 -6.49199,41.8293 -19.4939,58.6617 -13.002,16.6706 -34.51,30.6616 -64.5063,42.1709 -19.1702,7.33721 -61.6649,18.9904 -127.502,34.8337 -65.837,15.8253 -111.838,30.6616 -138.166,44.6706 -34.1684,17.9833 -59.4889,40.3187 -76.1595,66.8261 -16.8324,26.5075 -25.1767,56.3238 -25.1767,89.1614 0,36.3443 10.3404,70.171 30.8414,101.498 20.501,31.5068 50.3354,55.3348 89.8268,71.6816 39.3296,16.3289 83.173,24.4933 131.332,24.4933 52.9969,0 99.8435,-8.50612 140.342,-25.6622 40.4985,-17.0122 71.6636,-42.1709 93.4954,-75.5121 21.8318,-33.1613 33.503,-70.8364 35.1754,-112.828l-91.0137 -6.99552c-4.81954,45.1562 -21.3283,79.3245 -49.4902,102.325 -28.1619,23.1626 -69.8293,34.6719 -124.84,34.6719 -57.3309,0 -99.1602,-10.5023 -125.326,-31.5068 -26.1658,-20.9866 -39.3296,-46.3251 -39.3296,-75.9976 0,-25.6622 9.33336,-46.8286 27.8202,-63.4992 18.343,-16.4907 65.837,-33.6648 142.842,-51.0008 77.0047,-17.4978 129.822,-32.6578 158.505,-45.6597 41.4876,-19.1702 72.329,-43.3399 92.1647,-72.8326 19.8356,-29.3308 29.6545,-63.1755 29.6545,-101.498 0,-38.1786 -10.826,-73.8396 -32.6578,-107.504 -21.8318,-33.6648 -52.9969,-59.8306 -93.8371,-78.4973 -40.8402,-18.6667 -86.6618,-28.0001 -137.824,-28.0001 -64.6681,0 -118.834,9.49521 -162.516,28.3238 -43.8254,18.8465 -77.9938,47.1703 -102.829,85.1691 -24.9969,37.837 -37.9988,80.6733 -39.3296,128.509z" /></glyph><glyph
         id="glyph85-1"
         horiz-adv-x="277"
         unicode=" " /><glyph
         id="glyph87-5"
         horiz-adv-x="722"
         unicode="Ç"><path
           id="path89-54"
           d="M586.994 251.173l95.006 -24.0078c-19.8356,-77.8319 -55.4966,-136.997 -107.001,-177.837 -51.5043,-40.8222 -114.5,-61.3232 -189.005,-61.3232 -76.9867,0 -139.659,15.6635 -187.998,47.1703 -48.3213,31.327 -84.9893,76.8249 -110.166,136.332 -25.1587,59.6508 -37.837,123.492 -37.837,191.828 0,74.505 14.1709,139.497 42.6745,194.993 28.5036,55.4966 69.0021,97.6676 121.495,126.513 52.5114,28.8273 110.328,43.16 173.341,43.16 71.6636,0 131.836,-18.1632 180.499,-54.6694 48.8248,-36.5062 82.8313,-87.6688 102.002,-153.668l-93.0099 -21.9936c-16.4907,51.9899 -40.6603,89.9887 -72.1672,113.655 -31.4888,23.8459 -71.1601,35.679 -118.996,35.679 -54.8312,0 -100.833,-13.1638 -137.663,-39.5094 -36.8299,-26.3276 -62.8338,-61.8267 -77.6701,-106.156 -14.9981,-44.5088 -22.4972,-90.3483 -22.4972,-137.501 0,-60.8377 8.82982,-114.014 26.4895,-159.332 17.6776,-45.4979 45.1742,-79.3425 82.5076,-101.84 37.3334,-22.4972 77.6701,-33.6648 121.172,-33.6648 52.9969,0 97.6676,15.3398 134.336,45.8396 36.668,30.6616 61.4851,75.9976 74.487,136.332zm-277.321 -337.17l25.3206 85.9964 65.0098 0 -16.167 -52.0078c27.8382,-3.32692 48.8248,-11.833 62.9957,-25.6622 14.1709,-13.6673 21.1664,-28.9892 21.1664,-45.8216 0,-24.3495 -11.833,-45.8396 -35.4991,-64.5063 -23.5042,-18.6667 -59.1652,-28.0001 -106.659,-28.0001 -26.8491,0 -50.5152,0 -70.8364,0l4.99937 62.0066c21.1664,-0.683367 36.4882,-1.00707 46.5049,-1.00707 30.8235,0 52.6552,4.17214 65.1537,12.6603 9.51319,6.50997 14.3327,14.3327 14.3327,23.8459 0,5.8266 -1.8343,10.9878 -5.66475,15.4837 -3.6686,4.51382 -10.5023,8.50612 -20.501,11.6712 -10.1606,3.16507 -26.8312,4.99937 -50.1556,5.34105z" /></glyph><glyph
         id="glyph91-7"
         horiz-adv-x="667"
         unicode="P"><path
           id="path93-6"
           d="M77.0014 0l0 715.999 270.333 0c47.4991,0 83.8319,-2.3322 108.998,-6.83051 35.1667,-5.83403 64.6655,-17.0003 88.4998,-33.3363 23.8343,-16.4985 43.0008,-39.4989 57.4992,-68.9977 14.502,-29.5023 21.6682,-62.0011 21.6682,-97.5 0,-60.6689 -19.3325,-112.168 -58.1671,-154.169 -38.665,-42.1668 -108.832,-63.1637 -210.166,-63.1637l-183.668 0 0 -292.002 -94.9981 0zm94.9981 376l185 0c61.3332,0 104.666,11.3324 130.501,34.1667 25.6683,22.8343 38.4989,54.8349 38.4989,96.3339 0,29.8344 -7.49837,55.4992 -22.6647,76.8317 -15.1663,21.3361 -35.1667,35.5024 -59.835,42.3364 -16.0003,4.16615 -45.499,6.33227 -88.3337,6.33227l-183.166 0 0 -256.001z" /></glyph><glyph
         id="glyph95-56"
         horiz-adv-x="833"
         unicode="M"><path
           id="path97-93"
           d="M75.0013 0l0 715.999 141.999 0 169.332 -506.832c15.6681,-47.1669 27.0005,-82.4997 34.1667,-105.998 8.16976,26.0005 21.0004,64.3333 38.3364,114.832l172.332 497.998 126.833 0 0 -715.999 -90.9981 0 0 599 -209 -599 -85.3337 0 -206.668 610 0 -610 -90.9981 0z" /></glyph><glyph
         id="glyph99-7"
         horiz-adv-x="777"
         unicode="G"><path
           id="path101-45"
           d="M412 281.001l0 83.998 302.998 0 0 -265.333c-46.4991,-37.0007 -94.4999,-65.0011 -143.999,-83.6658 -49.4991,-18.6682 -100.334,-28.0005 -152.331,-28.0005 -70.3334,0 -134.168,15.0003 -191.668,45.1669 -57.3332,30.0005 -100.832,73.6656 -129.999,130.501 -29.3362,57.001 -44.0008,120.666 -44.0008,190.834 0,69.6655 14.4985,134.667 43.6651,195.166 29.1666,60.3332 71.0013,105.168 125.667,134.335 54.6688,29.3327 117.666,43.9972 189,43.9972 51.6688,0 98.5,-8.3323 140.335,-25.1665 41.8347,-16.8307 74.6656,-40.1668 98.3339,-69.9977 23.8308,-30.0005 41.8311,-69.1673 54.167,-117.334l-85.4997 -23.3326c-10.8341,36.3328 -24.1665,64.9976 -40.0007,85.998 -16.0003,20.8343 -38.6685,37.5024 -68.3334,50.0009 -29.5023,12.4985 -62.3333,18.8343 -98.5,18.8343 -43.1668,0 -80.4997,-6.66796 -112.168,-19.8343 -31.4988,-13.1663 -56.8314,-30.4988 -76.3335,-52.167 -19.3325,-21.4986 -34.3328,-45.1669 -45.0008,-70.8316 -18.1664,-44.5026 -27.3326,-92.4999 -27.3326,-144.335 0,-64.0011 11.0002,-117.5 32.8345,-160.667 22.0004,-43.0008 54.001,-74.9978 95.8321,-95.8321 42.0007,-20.8343 86.4998,-31.3327 133.667,-31.3327 41.0007,0 81.0014,8.00014 120.002,23.8308 38.9972,16.0003 68.4994,32.8345 88.6659,51.0009l0 134.168 -210 0z" /></glyph></font>
</defs>
</svg>
